<svg xmlns="http://www.w3.org/2000/svg"><defs><font id="fontawesome-free" horiz-adv-x="640"><font-face font-family="Font Awesome 5 Free" units-per-em="512" ascent="448" descent="64" font-weight="400" font-style="Regular"/><glyph glyph-name="address-book" unicode="" horiz-adv-x="448" d="M436 288c6.6 0 12 5.4 12 12v40c0 6.6-5.4 12-12 12h-20v48c0 26.5-21.5 48-48 48H48c-26.5 0-48-21.5-48-48V-16c0-26.5 21.5-48 48-48h320c26.5 0 48 21.5 48 48v48h20c6.6 0 12 5.4 12 12v40c0 6.6-5.4 12-12 12h-20v64h20c6.6 0 12 5.4 12 12v40c0 6.6-5.4 12-12 12h-20v64h20zM368-16H48v416h320V-16zM208 192c35.3 0 64 28.7 64 64s-28.7 64-64 64-64-28.7-64-64 28.7-64 64-64zM118.4 64h179.2C310 64 320 72.6 320 83.2v19.2c0 31.8-30.1 57.6-67.2 57.6-10.8 0-18.7-8-44.8-8-26.9 0-33.4 8-44.8 8-37.1 0-67.2-25.8-67.2-57.6V83.2C96 72.6 106 64 118.4 64z"/><glyph glyph-name="address-card" unicode="" horiz-adv-x="576" d="M528 416H48c-26.5 0-48-21.5-48-48V16c0-26.5 21.5-48 48-48h480c26.5 0 48 21.5 48 48v352c0 26.5-21.5 48-48 48zm0-400H48v352h480V16zM208 192c35.3 0 64 28.7 64 64s-28.7 64-64 64-64-28.7-64-64 28.7-64 64-64zM118.4 64h179.2C310 64 320 72.6 320 83.2v19.2c0 31.8-30.1 57.6-67.2 57.6-10.8 0-18.7-8-44.8-8-26.9 0-33.4 8-44.8 8-37.1 0-67.2-25.8-67.2-57.6V83.2C96 72.6 106 64 118.4 64zM360 128h112c4.4 0 8 3.6 8 8v16c0 4.4-3.6 8-8 8H360c-4.4 0-8-3.6-8-8v-16c0-4.4 3.6-8 8-8zm0 64h112c4.4 0 8 3.6 8 8v16c0 4.4-3.6 8-8 8H360c-4.4 0-8-3.6-8-8v-16c0-4.4 3.6-8 8-8zm0 64h112c4.4 0 8 3.6 8 8v16c0 4.4-3.6 8-8 8H360c-4.4 0-8-3.6-8-8v-16c0-4.4 3.6-8 8-8z"/><glyph glyph-name="angry" unicode="" horiz-adv-x="496" d="M248 440C111 440 0 329 0 192S111-56 248-56 496 55 496 192 385 440 248 440zm0-448C137.7-8 48 81.7 48 192s89.7 200 200 200 200-89.7 200-200S358.3-8 248-8zm0 144c-33.6 0-65.2-14.8-86.8-40.6-8.5-10.2-7.1-25.3 3.1-33.8s25.3-7.2 33.8 3c24.8 29.7 75 29.7 99.8 0 8.1-9.7 23.2-11.9 33.8-3 10.2 8.5 11.5 23.6 3.1 33.8-21.6 25.8-53.2 40.6-86.8 40.6zm-48 72c10.3 0 19.9 6.7 23 17.1 3.8 12.7-3.4 26.1-16.1 29.9l-80 24c-12.8 3.9-26.1-3.4-29.9-16.1-3.8-12.7 3.4-26.1 16.1-29.9l28.2-8.5c-3.1-4.9-5.3-10.4-5.3-16.6 0-17.7 14.3-32 32-32s32 14.4 32 32.1zm199 54.9c-3.8 12.7-17.1 19.9-29.9 16.1l-80-24c-12.7-3.8-19.9-17.2-16.1-29.9 3.1-10.4 12.7-17.1 23-17.1 0-17.7 14.3-32 32-32s32 14.3 32 32c0 6.2-2.2 11.7-5.3 16.6l28.2 8.5c12.7 3.7 19.9 17.1 16.1 29.8z"/><glyph glyph-name="arrow-alt-circle-down" unicode="" horiz-adv-x="512" d="M256 440C119 440 8 329 8 192S119-56 256-56 504 55 504 192 393 440 256 440zm0-448C145.5-8 56 81.5 56 192s89.5 200 200 200 200-89.5 200-200S366.5-8 256-8zm-32 316V192h-67c-10.7 0-16-12.9-8.5-20.5l99-99c4.7-4.7 12.3-4.7 17 0l99 99c7.6 7.6 2.2 20.5-8.5 20.5h-67v116c0 6.6-5.4 12-12 12h-40c-6.6 0-12-5.4-12-12z"/><glyph glyph-name="arrow-alt-circle-left" unicode="" horiz-adv-x="512" d="M8 192C8 55 119-56 256-56S504 55 504 192 393 440 256 440 8 329 8 192zm448 0C456 81.5 366.5-8 256-8S56 81.5 56 192s89.5 200 200 200 200-89.5 200-200zm-72 20v-40c0-6.6-5.4-12-12-12H256V93c0-10.7-12.9-16-20.5-8.5l-99 99c-4.7 4.7-4.7 12.3 0 17l99 99c7.6 7.6 20.5 2.2 20.5-8.5v-67h116c6.6 0 12-5.4 12-12z"/><glyph glyph-name="arrow-alt-circle-right" unicode="" horiz-adv-x="512" d="M504 192c0 137-111 248-248 248S8 329 8 192 119-56 256-56 504 55 504 192zm-448 0c0 110.5 89.5 200 200 200s200-89.5 200-200S366.5-8 256-8 56 81.5 56 192zm72-20v40c0 6.6 5.4 12 12 12h116v67c0 10.7 12.9 16 20.5 8.5l99-99c4.7-4.7 4.7-12.3 0-17l-99-99c-7.6-7.6-20.5-2.2-20.5 8.5v67H140c-6.6 0-12 5.4-12 12z"/><glyph glyph-name="arrow-alt-circle-up" unicode="" horiz-adv-x="512" d="M256-56c137 0 248 111 248 248S393 440 256 440 8 329 8 192 119-56 256-56zm0 448c110.5 0 200-89.5 200-200S366.5-8 256-8 56 81.5 56 192s89.5 200 200 200zm20-328h-40c-6.6 0-12 5.4-12 12v116h-67c-10.7 0-16 12.9-8.5 20.5l99 99c4.7 4.7 12.3 4.7 17 0l99-99c7.6-7.6 2.2-20.5-8.5-20.5h-67V76c0-6.6-5.4-12-12-12z"/><glyph glyph-name="bell-slash" unicode="" horiz-adv-x="640" d="M633.99-23.02L36 444.49c-6.9 5.52-16.97 4.41-22.49-2.49l-10-12.49c-5.53-6.9-4.41-16.97 2.49-22.49L604-60.49c6.9-5.52 16.96-4.4 22.49 2.49l10 12.49c5.52 6.9 4.41 16.97-2.5 22.49zM163.53 80c16.71 22.03 34.48 55.8 41.4 110.58l-45.47 35.55c-3.27-90.73-36.47-120.68-54.84-140.42-6-6.45-8.66-14.16-8.61-21.71.11-16.4 12.98-32 32.1-32h279.66l-61.4 48H163.53zM320 352c61.86 0 112-50.14 112-112 0-.2-.06-.38-.06-.58.02-16.84 1.16-31.77 2.79-45.73l59.53-46.54c-8.31 22.13-14.34 51.49-14.34 92.85 0 77.7-54.48 139.9-127.94 155.16V416c0 17.67-14.32 32-31.98 32s-31.98-14.33-31.98-32v-20.84c-26.02-5.41-49.45-16.94-69.13-32.72l38.17-29.84C275 344.82 296.65 352 320 352zm0-416c35.32 0 63.97 28.65 63.97 64H256.03c0-35.35 28.65-64 63.97-64z"/><glyph glyph-name="bell" unicode="" horiz-adv-x="448" d="M439.39 85.71c-19.32 20.76-55.47 51.99-55.47 154.29 0 77.7-54.48 139.9-127.94 155.16V416c0 17.67-14.32 32-31.98 32s-31.98-14.33-31.98-32v-20.84C118.56 379.9 64.08 317.7 64.08 240c0-102.3-36.15-133.53-55.47-154.29C2.61 79.26-.05 71.55 0 64c.11-16.4 12.98-32 32.1-32h383.8c19.12 0 32 15.6 32.1 32 .05 7.55-2.61 15.27-8.61 21.71zM67.53 80c21.22 27.97 44.42 74.33 44.53 159.42 0 .2-.06.38-.06.58 0 61.86 50.14 112 112 112s112-50.14 112-112c0-.2-.06-.38-.06-.58.11-85.1 23.31-131.46 44.53-159.42H67.53zM224-64c35.32 0 63.97 28.65 63.97 64H160.03c0-35.35 28.65-64 63.97-64z"/><glyph glyph-name="bookmark" unicode="" horiz-adv-x="384" d="M336 448H48c-26.51 0-48-21.49-48-48V-64L192 48 384-64v464c0 26.51-21.49 48-48 48zm0-428.43l-144 84-144-84V394a6 6 0 0 0 6 6h276c3.314 0 6-2.683 6-5.996V19.57z"/><glyph glyph-name="building" unicode="" horiz-adv-x="448" d="M128 300v40c0 6.6 5.4 12 12 12h40c6.6 0 12-5.4 12-12v-40c0-6.6-5.4-12-12-12h-40c-6.6 0-12 5.4-12 12zm140-12h40c6.6 0 12 5.4 12 12v40c0 6.6-5.4 12-12 12h-40c-6.6 0-12-5.4-12-12v-40c0-6.6 5.4-12 12-12zm-128-96h40c6.6 0 12 5.4 12 12v40c0 6.6-5.4 12-12 12h-40c-6.6 0-12-5.4-12-12v-40c0-6.6 5.4-12 12-12zm128 0h40c6.6 0 12 5.4 12 12v40c0 6.6-5.4 12-12 12h-40c-6.6 0-12-5.4-12-12v-40c0-6.6 5.4-12 12-12zm-76-84v40c0 6.6-5.4 12-12 12h-40c-6.6 0-12-5.4-12-12v-40c0-6.6 5.4-12 12-12h40c6.6 0 12 5.4 12 12zm76-12h40c6.6 0 12 5.4 12 12v40c0 6.6-5.4 12-12 12h-40c-6.6 0-12-5.4-12-12v-40c0-6.6 5.4-12 12-12zM448-28v-36H0v36c0 6.6 5.4 12 12 12h19.5v440c0 13.3 10.7 24 24 24h337c13.3 0 24-10.7 24-24V-16H436c6.6 0 12-5.4 12-12zM79.5-15H192v67c0 6.6 5.4 12 12 12h40c6.6 0 12-5.4 12-12v-67h112.5v414L80 400l-.5-415z"/><glyph glyph-name="calendar-alt" unicode="" horiz-adv-x="448" d="M148 160h-40c-6.6 0-12 5.4-12 12v40c0 6.6 5.4 12 12 12h40c6.6 0 12-5.4 12-12v-40c0-6.6-5.4-12-12-12zm108 12v40c0 6.6-5.4 12-12 12h-40c-6.6 0-12-5.4-12-12v-40c0-6.6 5.4-12 12-12h40c6.6 0 12 5.4 12 12zm96 0v40c0 6.6-5.4 12-12 12h-40c-6.6 0-12-5.4-12-12v-40c0-6.6 5.4-12 12-12h40c6.6 0 12 5.4 12 12zm-96-96v40c0 6.6-5.4 12-12 12h-40c-6.6 0-12-5.4-12-12V76c0-6.6 5.4-12 12-12h40c6.6 0 12 5.4 12 12zm-96 0v40c0 6.6-5.4 12-12 12h-40c-6.6 0-12-5.4-12-12V76c0-6.6 5.4-12 12-12h40c6.6 0 12 5.4 12 12zm192 0v40c0 6.6-5.4 12-12 12h-40c-6.6 0-12-5.4-12-12V76c0-6.6 5.4-12 12-12h40c6.6 0 12 5.4 12 12zm96 260V-16c0-26.5-21.5-48-48-48H48C21.5-64 0-42.5 0-16v352c0 26.5 21.5 48 48 48h48v52c0 6.6 5.4 12 12 12h40c6.6 0 12-5.4 12-12v-52h128v52c0 6.6 5.4 12 12 12h40c6.6 0 12-5.4 12-12v-52h48c26.5 0 48-21.5 48-48zM400-10v298H48V-10c0-3.3 2.7-6 6-6h340c3.3 0 6 2.7 6 6z"/><glyph glyph-name="calendar-check" unicode="" horiz-adv-x="448" d="M400 384h-48v52c0 6.627-5.373 12-12 12h-40c-6.627 0-12-5.373-12-12v-52H160v52c0 6.627-5.373 12-12 12h-40c-6.627 0-12-5.373-12-12v-52H48c-26.51 0-48-21.49-48-48V-16c0-26.51 21.49-48 48-48h352c26.51 0 48 21.49 48 48v352c0 26.51-21.49 48-48 48zm-6-400H54a6 6 0 0 0-6 6v298h352V-10a6 6 0 0 0-6-6zm-52.849 200.65L198.842 43.481c-4.705-4.667-12.303-4.637-16.971.068l-75.091 75.699c-4.667 4.705-4.637 12.303.068 16.971l22.719 22.536c4.705 4.667 12.303 4.637 16.97-.069l44.104-44.461 111.072 110.181c4.705 4.667 12.303 4.637 16.971-.068l22.536-22.718c4.667-4.705 4.636-12.303-.069-16.97z"/><glyph glyph-name="calendar-minus" unicode="" horiz-adv-x="448" d="M124 120c-6.6 0-12 5.4-12 12v24c0 6.6 5.4 12 12 12h200c6.6 0 12-5.4 12-12v-24c0-6.6-5.4-12-12-12H124zm324 216V-16c0-26.5-21.5-48-48-48H48C21.5-64 0-42.5 0-16v352c0 26.5 21.5 48 48 48h48v52c0 6.6 5.4 12 12 12h40c6.6 0 12-5.4 12-12v-52h128v52c0 6.6 5.4 12 12 12h40c6.6 0 12-5.4 12-12v-52h48c26.5 0 48-21.5 48-48zM400-10v298H48V-10c0-3.3 2.7-6 6-6h340c3.3 0 6 2.7 6 6z"/><glyph glyph-name="calendar-plus" unicode="" horiz-adv-x="448" d="M336 156v-24c0-6.6-5.4-12-12-12h-76V44c0-6.6-5.4-12-12-12h-24c-6.6 0-12 5.4-12 12v76h-76c-6.6 0-12 5.4-12 12v24c0 6.6 5.4 12 12 12h76v76c0 6.6 5.4 12 12 12h24c6.6 0 12-5.4 12-12v-76h76c6.6 0 12-5.4 12-12zm112 180V-16c0-26.5-21.5-48-48-48H48C21.5-64 0-42.5 0-16v352c0 26.5 21.5 48 48 48h48v52c0 6.6 5.4 12 12 12h40c6.6 0 12-5.4 12-12v-52h128v52c0 6.6 5.4 12 12 12h40c6.6 0 12-5.4 12-12v-52h48c26.5 0 48-21.5 48-48zM400-10v298H48V-10c0-3.3 2.7-6 6-6h340c3.3 0 6 2.7 6 6z"/><glyph glyph-name="calendar-times" unicode="" horiz-adv-x="448" d="M311.7 73.3l-17-17c-4.7-4.7-12.3-4.7-17 0L224 110.1l-53.7-53.7c-4.7-4.7-12.3-4.7-17 0l-17 17c-4.7 4.7-4.7 12.3 0 17l53.7 53.7-53.7 53.7c-4.7 4.7-4.7 12.3 0 17l17 17c4.7 4.7 12.3 4.7 17 0l53.7-53.7 53.7 53.7c4.7 4.7 12.3 4.7 17 0l17-17c4.7-4.7 4.7-12.3 0-17L257.9 144l53.7-53.7c4.8-4.7 4.8-12.3.1-17zM448 336V-16c0-26.5-21.5-48-48-48H48C21.5-64 0-42.5 0-16v352c0 26.5 21.5 48 48 48h48v52c0 6.6 5.4 12 12 12h40c6.6 0 12-5.4 12-12v-52h128v52c0 6.6 5.4 12 12 12h40c6.6 0 12-5.4 12-12v-52h48c26.5 0 48-21.5 48-48zM400-10v298H48V-10c0-3.3 2.7-6 6-6h340c3.3 0 6 2.7 6 6z"/><glyph glyph-name="calendar" unicode="" horiz-adv-x="448" d="M400 384h-48v52c0 6.6-5.4 12-12 12h-40c-6.6 0-12-5.4-12-12v-52H160v52c0 6.6-5.4 12-12 12h-40c-6.6 0-12-5.4-12-12v-52H48c-26.5 0-48-21.5-48-48V-16c0-26.5 21.5-48 48-48h352c26.5 0 48 21.5 48 48v352c0 26.5-21.5 48-48 48zm-6-400H54c-3.3 0-6 2.7-6 6v298h352V-10c0-3.3-2.7-6-6-6z"/><glyph glyph-name="caret-square-down" unicode="" horiz-adv-x="448" d="M125.1 240h197.8c10.7 0 16.1-13 8.5-20.5l-98.9-98.3c-4.7-4.7-12.2-4.7-16.9 0l-98.9 98.3c-7.7 7.5-2.3 20.5 8.4 20.5zM448 368V16c0-26.5-21.5-48-48-48H48C21.5-32 0-10.5 0 16v352c0 26.5 21.5 48 48 48h352c26.5 0 48-21.5 48-48zM400 22v340c0 3.3-2.7 6-6 6H54c-3.3 0-6-2.7-6-6V22c0-3.3 2.7-6 6-6h340c3.3 0 6 2.7 6 6z"/><glyph glyph-name="caret-square-left" unicode="" horiz-adv-x="448" d="M272 290.9V93.1c0-10.7-13-16.1-20.5-8.5l-98.3 98.9c-4.7 4.7-4.7 12.2 0 16.9l98.3 98.9c7.5 7.7 20.5 2.3 20.5-8.4zM448 368V16c0-26.5-21.5-48-48-48H48C21.5-32 0-10.5 0 16v352c0 26.5 21.5 48 48 48h352c26.5 0 48-21.5 48-48zM400 22v340c0 3.3-2.7 6-6 6H54c-3.3 0-6-2.7-6-6V22c0-3.3 2.7-6 6-6h340c3.3 0 6 2.7 6 6z"/><glyph glyph-name="caret-square-right" unicode="" horiz-adv-x="448" d="M176 93.1v197.8c0 10.7 13 16.1 20.5 8.5l98.3-98.9c4.7-4.7 4.7-12.2 0-16.9l-98.3-98.9C189 77 176 82.4 176 93.1zM448 368V16c0-26.5-21.5-48-48-48H48C21.5-32 0-10.5 0 16v352c0 26.5 21.5 48 48 48h352c26.5 0 48-21.5 48-48zM400 22v340c0 3.3-2.7 6-6 6H54c-3.3 0-6-2.7-6-6V22c0-3.3 2.7-6 6-6h340c3.3 0 6 2.7 6 6z"/><glyph glyph-name="caret-square-up" unicode="" horiz-adv-x="448" d="M322.9 144H125.1c-10.7 0-16.1 13-8.5 20.5l98.9 98.3c4.7 4.7 12.2 4.7 16.9 0l98.9-98.3c7.7-7.5 2.3-20.5-8.4-20.5zM448 368V16c0-26.5-21.5-48-48-48H48C21.5-32 0-10.5 0 16v352c0 26.5 21.5 48 48 48h352c26.5 0 48-21.5 48-48zM400 22v340c0 3.3-2.7 6-6 6H54c-3.3 0-6-2.7-6-6V22c0-3.3 2.7-6 6-6h340c3.3 0 6 2.7 6 6z"/><glyph glyph-name="chart-bar" unicode="" horiz-adv-x="512" d="M396.8 96h22.4c6.4 0 12.8 6.4 12.8 12.8v230.4c0 6.4-6.4 12.8-12.8 12.8h-22.4c-6.4 0-12.8-6.4-12.8-12.8V108.8c0-6.4 6.4-12.8 12.8-12.8zm-192 0h22.4c6.4 0 12.8 6.4 12.8 12.8v198.4c0 6.4-6.4 12.8-12.8 12.8h-22.4c-6.4 0-12.8-6.4-12.8-12.8V108.8c0-6.4 6.4-12.8 12.8-12.8zm96 0h22.4c6.4 0 12.8 6.4 12.8 12.8v134.4c0 6.4-6.4 12.8-12.8 12.8h-22.4c-6.4 0-12.8-6.4-12.8-12.8V108.8c0-6.4 6.4-12.8 12.8-12.8zM496 48H48v320c0 8.84-7.16 16-16 16H16c-8.84 0-16-7.16-16-16V32C0 14.33 14.33 0 32 0h464c8.84 0 16 7.16 16 16v16c0 8.84-7.16 16-16 16zM108.8 96h22.4c6.4 0 12.8 6.4 12.8 12.8v70.4c0 6.4-6.4 12.8-12.8 12.8h-22.4c-6.4 0-12.8-6.4-12.8-12.8v-70.4c0-6.4 6.4-12.8 12.8-12.8z"/><glyph glyph-name="check-circle" unicode="" horiz-adv-x="512" d="M256 440C119.033 440 8 328.967 8 192S119.033-56 256-56 504 55.033 504 192 392.967 440 256 440zm0-48c110.532 0 200-89.451 200-200C456 81.468 366.549-8 256-8 145.468-8 56 81.451 56 192c0 110.532 89.451 200 200 200m140.204-130.267l-22.536 22.718c-4.667 4.705-12.265 4.736-16.97.068L215.346 144.303l-59.792 60.277c-4.667 4.705-12.265 4.736-16.97.069l-22.719-22.536c-4.705-4.667-4.736-12.265-.068-16.971l90.781-91.516c4.667-4.705 12.265-4.736 16.97-.068l172.589 171.204c4.704 4.668 4.734 12.266.067 16.971z"/><glyph glyph-name="check-square" unicode="" horiz-adv-x="448" d="M400 416H48c-26.51 0-48-21.49-48-48V16c0-26.51 21.49-48 48-48h352c26.51 0 48 21.49 48 48v352c0 26.51-21.49 48-48 48zm0-400H48v352h352V16zm-35.864 241.724L191.547 86.52c-4.705-4.667-12.303-4.637-16.97.068l-90.781 91.516c-4.667 4.705-4.637 12.303.069 16.971l22.719 22.536c4.705 4.667 12.303 4.637 16.97-.069l59.792-60.277 141.352 140.216c4.705 4.667 12.303 4.637 16.97-.068l22.536-22.718c4.667-4.706 4.637-12.304-.068-16.971z"/><glyph glyph-name="circle" unicode="" horiz-adv-x="512" d="M256 440C119 440 8 329 8 192S119-56 256-56 504 55 504 192 393 440 256 440zm0-448C145.5-8 56 81.5 56 192s89.5 200 200 200 200-89.5 200-200S366.5-8 256-8z"/><glyph glyph-name="clipboard" unicode="" horiz-adv-x="384" d="M336 384h-80c0 35.29-28.71 64-64 64s-64-28.71-64-64H48c-26.51 0-48-21.49-48-48V-16c0-26.51 21.49-48 48-48h288c26.51 0 48 21.49 48 48v352c0 26.51-21.49 48-48 48zm-6-400H54a6 6 0 0 0-6 6v340a6 6 0 0 0 6 6h42v-36c0-6.627 5.373-12 12-12h168c6.627 0 12 5.373 12 12v36h42a6 6 0 0 0 6-6V-10a6 6 0 0 0-6-6zM192 408c13.255 0 24-10.745 24-24s-10.745-24-24-24-24 10.745-24 24 10.745 24 24 24"/><glyph glyph-name="clock" unicode="" horiz-adv-x="512" d="M256 440C119 440 8 329 8 192S119-56 256-56 504 55 504 192 393 440 256 440zm0-448C145.5-8 56 81.5 56 192s89.5 200 200 200 200-89.5 200-200S366.5-8 256-8zm61.8 104.4l-84.9 61.7c-3.1 2.3-4.9 5.9-4.9 9.7V332c0 6.6 5.4 12 12 12h32c6.6 0 12-5.4 12-12V190.3l66.8-48.6c5.4-3.9 6.5-11.4 2.6-16.8L334.6 99c-3.9-5.3-11.4-6.5-16.8-2.6z"/><glyph glyph-name="clone" unicode="" horiz-adv-x="512" d="M464 448H144c-26.51 0-48-21.49-48-48v-48H48c-26.51 0-48-21.49-48-48V-16c0-26.51 21.49-48 48-48h320c26.51 0 48 21.49 48 48v48h48c26.51 0 48 21.49 48 48v320c0 26.51-21.49 48-48 48zM362-16H54a6 6 0 0 0-6 6v308a6 6 0 0 0 6 6h42V80c0-26.51 21.49-48 48-48h224v-42a6 6 0 0 0-6-6zm96 96H150a6 6 0 0 0-6 6v308a6 6 0 0 0 6 6h308a6 6 0 0 0 6-6V86a6 6 0 0 0-6-6z"/><glyph glyph-name="closed-captioning" unicode="" horiz-adv-x="512" d="M464 384H48c-26.5 0-48-21.5-48-48V48C0 21.5 21.5 0 48 0h416c26.5 0 48 21.5 48 48v288c0 26.5-21.5 48-48 48zm-6-336H54c-3.3 0-6 2.7-6 6v276c0 3.3 2.7 6 6 6h404c3.3 0 6-2.7 6-6V54c0-3.3-2.7-6-6-6zm-211.1 85.7c1.7-2.4 1.5-5.6-.5-7.7-53.6-56.8-172.8-32.1-172.8 67.9 0 97.3 121.7 119.5 172.5 70.1 2.1-2 2.5-3.2 1-5.7l-17.5-30.5c-1.9-3.1-6.2-4-9.1-1.7-40.8 32-94.6 14.9-94.6-31.2 0-48 51-70.5 92.2-32.6 2.8 2.5 7.1 2.1 9.2-.9l19.6-27.7zm190.4 0c1.7-2.4 1.5-5.6-.5-7.7C383.2 69.1 264 93.9 264 193.9c0 97.3 121.7 119.5 172.5 70.1 2.1-2 2.5-3.2 1-5.7L420 227.8c-1.9-3.1-6.2-4-9.1-1.7-40.8 32-94.6 14.9-94.6-31.2 0-48 51-70.5 92.2-32.6 2.8 2.5 7.1 2.1 9.2-.9l19.6-27.7z"/><glyph glyph-name="comment-alt" unicode="" horiz-adv-x="512" d="M448 448H64c-35.3 0-64-28.7-64-64V96c0-35.3 28.7-64 64-64h96v-84c0-7.1 5.8-12 12-12 2.4 0 4.9.7 7.1 2.4L304 32h144c35.3 0 64 28.7 64 64v288c0 35.3-28.7 64-64 64zm16-352c0-8.8-7.2-16-16-16H288l-12.8-9.6L208 20v60H64c-8.8 0-16 7.2-16 16v288c0 8.8 7.2 16 16 16h384c8.8 0 16-7.2 16-16V96z"/><glyph glyph-name="comment-dots" unicode="" horiz-adv-x="512" d="M144 240c-17.7 0-32-14.3-32-32s14.3-32 32-32 32 14.3 32 32-14.3 32-32 32zm112 0c-17.7 0-32-14.3-32-32s14.3-32 32-32 32 14.3 32 32-14.3 32-32 32zm112 0c-17.7 0-32-14.3-32-32s14.3-32 32-32 32 14.3 32 32-14.3 32-32 32zM256 416C114.6 416 0 322.9 0 208c0-47.6 19.9-91.2 52.9-126.3C38 42.3 7 8.9 6.5 8.5c-6.6-7-8.4-17.2-4.6-26S14.4-32 24-32c61.5 0 110 25.7 139.1 46.3C192 5.2 223.2 0 256 0c141.4 0 256 93.1 256 208S397.4 416 256 416zm0-368c-26.7 0-53.1 4.1-78.4 12.1l-22.7 7.2-19.5-13.8c-14.3-10.1-33.9-21.4-57.5-29 7.3 12.1 14.4 25.7 19.9 40.2l10.6 28.1-20.6 21.8C69.7 133.9 48 165.8 48 208c0 88.2 93.3 160 208 160s208-71.8 208-160S370.7 48 256 48z"/><glyph glyph-name="comment" unicode="" horiz-adv-x="512" d="M256 416C114.6 416 0 322.9 0 208c0-47.6 19.9-91.2 52.9-126.3C38 42.3 7 8.9 6.5 8.5c-6.6-7-8.4-17.2-4.6-26S14.4-32 24-32c61.5 0 110 25.7 139.1 46.3C192 5.2 223.2 0 256 0c141.4 0 256 93.1 256 208S397.4 416 256 416zm0-368c-26.7 0-53.1 4.1-78.4 12.1l-22.7 7.2-19.5-13.8c-14.3-10.1-33.9-21.4-57.5-29 7.3 12.1 14.4 25.7 19.9 40.2l10.6 28.1-20.6 21.8C69.7 133.9 48 165.8 48 208c0 88.2 93.3 160 208 160s208-71.8 208-160S370.7 48 256 48z"/><glyph glyph-name="comments" unicode="" horiz-adv-x="576" d="M532 61.8c27.5 27.1 44 61.1 44 98.2 0 80-76.5 146.1-176.2 157.9C368.3 375.5 294.3 416 208 416 93.1 416 0 344.4 0 256c0-37 16.5-71 44-98.2-15.3-30.7-37.3-54.5-37.7-54.9-6.3-6.7-8.1-16.5-4.4-25 3.6-8.5 12-14 21.2-14 53.5 0 96.7 20.2 125.2 38.8 9.2-2.1 18.7-3.7 28.4-4.9C208.1 40.4 281.8 0 368 0c20.8 0 40.8 2.4 59.8 6.8C456.3-11.7 499.4-32 553-32c9.2 0 17.5 5.5 21.2 14 3.6 8.5 1.9 18.3-4.4 25-.4.3-22.5 24.1-37.8 54.8zm-392.8 92.3L122.1 143c-14.1-9.1-28.5-16.3-43.1-21.4 2.7 4.7 5.4 9.7 8 14.8l15.5 31.1L77.7 192C64.2 205.4 48 227.3 48 256c0 60.7 73.3 112 160 112s160-51.3 160-112-73.3-112-160-112c-16.5 0-33 1.9-49 5.6l-19.8 4.5zM498.3 96l-24.7-24.4 15.5-31.1c2.6-5.1 5.3-10.1 8-14.8-14.6 5.1-29 12.3-43.1 21.4l-17.1 11.1-19.9-4.6c-16-3.7-32.5-5.6-49-5.6-54 0-102.2 20.1-131.3 49.7C338 108.5 416 175.1 416 256c0 3.4-.4 6.7-.7 10C479.7 251.5 528 209.2 528 160c0-28.7-16.2-50.6-29.7-64z"/><glyph glyph-name="compass" unicode="" horiz-adv-x="496" d="M347.94 318.14L203.6 252.17a31.938 31.938 0 0 1-15.77-15.77L121.86 92.06c-7.61-16.65 9.54-33.81 26.2-26.2l144.34 65.97a31.938 31.938 0 0 1 15.77 15.77l65.97 144.34c7.61 16.66-9.54 33.81-26.2 26.2zm-77.36-148.72c-12.47-12.47-32.69-12.47-45.16 0-12.47 12.47-12.47 32.69 0 45.16 12.47 12.47 32.69 12.47 45.16 0 12.47-12.47 12.47-32.69 0-45.16zM248 440C111.03 440 0 328.97 0 192S111.03-56 248-56 496 55.03 496 192 384.97 440 248 440zm0-448C137.72-8 48 81.72 48 192s89.72 200 200 200 200-89.72 200-200S358.28-8 248-8z"/><glyph glyph-name="copy" unicode="" horiz-adv-x="448" d="M433.941 382.059l-51.882 51.882A48 48 0 0 1 348.118 448H176c-26.51 0-48-21.49-48-48v-48H48c-26.51 0-48-21.49-48-48V-16c0-26.51 21.49-48 48-48h224c26.51 0 48 21.49 48 48v48h80c26.51 0 48 21.49 48 48v268.118a48 48 0 0 1-14.059 33.941zM266-16H54a6 6 0 0 0-6 6v308a6 6 0 0 0 6 6h74V80c0-26.51 21.49-48 48-48h96v-42a6 6 0 0 0-6-6zm128 96H182a6 6 0 0 0-6 6v308a6 6 0 0 0 6 6h106v-88c0-13.255 10.745-24 24-24h88V86a6 6 0 0 0-6-6zm6 256h-64v64h9.632a6.003 6.003 0 0 0 4.243-1.757l48.368-48.368a6 6 0 0 0 1.757-4.243V336z"/><glyph glyph-name="copyright" unicode="" horiz-adv-x="512" d="M256 440C119.033 440 8 328.967 8 192S119.033-56 256-56 504 55.033 504 192 392.967 440 256 440zm0-448C145.468-8 56 81.451 56 192c0 110.531 89.451 200 200 200 110.532 0 200-89.451 200-200C456 81.468 366.549-8 256-8zM363.351 93.064c-9.614-9.712-45.53-41.396-104.065-41.396-82.43 0-140.484 61.425-140.484 141.567 0 79.152 60.275 139.401 139.762 139.401 55.531 0 88.738-26.62 97.593-34.779a11.965 11.965 0 0 0 1.936-15.322l-18.155-28.113c-3.841-5.95-11.966-7.282-17.499-2.921-8.595 6.776-31.814 22.538-61.708 22.538-48.303 0-77.916-35.33-77.916-80.082 0-41.589 26.888-83.692 78.277-83.692 32.657 0 56.843 19.039 65.726 27.225 5.27 4.857 13.596 4.039 17.82-1.738l19.865-27.17a11.947 11.947 0 0 0-1.152-15.518z"/><glyph glyph-name="credit-card" unicode="" horiz-adv-x="576" d="M527.9 416H48.1C21.5 416 0 394.5 0 368V16c0-26.5 21.5-48 48.1-48h479.8c26.6 0 48.1 21.5 48.1 48v352c0 26.5-21.5 48-48.1 48zM54.1 368h467.8c3.3 0 6-2.7 6-6v-42H48.1v42c0 3.3 2.7 6 6 6zM521.9 16H54.1c-3.3 0-6 2.7-6 6v170h479.8V22c0-3.3-2.7-6-6-6zM192 116V76c0-6.6-5.4-12-12-12h-72c-6.6 0-12 5.4-12 12v40c0 6.6 5.4 12 12 12h72c6.6 0 12-5.4 12-12zm192 0V76c0-6.6-5.4-12-12-12H236c-6.6 0-12 5.4-12 12v40c0 6.6 5.4 12 12 12h136c6.6 0 12-5.4 12-12z"/><glyph glyph-name="dizzy" unicode="" horiz-adv-x="496" d="M248 440C111 440 0 329 0 192S111-56 248-56 496 55 496 192 385 440 248 440zm0-448C137.7-8 48 81.7 48 192s89.7 200 200 200 200-89.7 200-200S358.3-8 248-8zm-33.8 217.9c7.8 7.8 7.8 20.5 0 28.3L196.3 256l17.9 17.9c7.8 7.8 7.8 20.5 0 28.3-7.8 7.8-20.5 7.8-28.3 0L168 284.3l-17.8 17.8c-7.8 7.8-20.5 7.8-28.3 0-7.8-7.8-7.8-20.5 0-28.3l17.9-17.9-17.9-17.9c-7.8-7.8-7.8-20.5 0-28.3 7.8-7.8 20.5-7.8 28.3 0l17.8 17.8 17.8-17.8c7.9-7.7 20.5-7.7 28.4.2zm160 92.2c-7.8 7.8-20.5 7.8-28.3 0L328 284.3l-17.8 17.8c-7.8 7.8-20.5 7.8-28.3 0-7.8-7.8-7.8-20.5 0-28.3l17.9-17.9-17.9-17.9c-7.8-7.8-7.8-20.5 0-28.3 7.8-7.8 20.5-7.8 28.3 0l17.8 17.8 17.8-17.8c7.8-7.8 20.5-7.8 28.3 0 7.8 7.8 7.8 20.5 0 28.3l-17.8 18 17.9 17.9c7.7 7.8 7.7 20.4 0 28.2zM248 176c-35.3 0-64-28.7-64-64s28.7-64 64-64 64 28.7 64 64-28.7 64-64 64z"/><glyph glyph-name="dot-circle" unicode="" horiz-adv-x="512" d="M256 392c110.532 0 200-89.451 200-200C456 81.468 366.549-8 256-8 145.468-8 56 81.451 56 192c0 110.532 89.451 200 200 200m0 48C119.033 440 8 328.967 8 192S119.033-56 256-56 504 55.033 504 192 392.967 440 256 440zm0-168c-44.183 0-80-35.817-80-80s35.817-80 80-80 80 35.817 80 80-35.817 80-80 80z"/><glyph glyph-name="edit" unicode="" horiz-adv-x="576" d="M402.3 103.1l32 32c5 5 13.7 1.5 13.7-5.7V-16c0-26.5-21.5-48-48-48H48C21.5-64 0-42.5 0-16v352c0 26.5 21.5 48 48 48h273.5c7.1 0 10.7-8.6 5.7-13.7l-32-32c-1.5-1.5-3.5-2.3-5.7-2.3H48V-16h352V97.5c0 2.1.8 4.1 2.3 5.6zm156.6 201.8L296.3 42.3l-90.4-10c-26.2-2.9-48.5 19.2-45.6 45.6l10 90.4 262.6 262.6c22.9 22.9 59.9 22.9 82.7 0l43.2-43.2c22.9-22.9 22.9-60 .1-82.8zM460.1 274L402 332.1 216.2 146.2l-7.3-65.3 65.3 7.3L460.1 274zm64.8 79.7l-43.2 43.2c-4.1 4.1-10.8 4.1-14.8 0L436 366l58.1-58.1 30.9 30.9c4 4.2 4 10.8-.1 14.9z"/><glyph glyph-name="envelope-open" unicode="" horiz-adv-x="512" d="M494.586 283.484c-4.697 3.883-111.723 89.95-135.251 108.657C337.231 409.809 299.437 448 256 448c-43.205 0-80.636-37.717-103.335-55.859-24.463-19.45-131.07-105.195-135.15-108.549A48.004 48.004 0 0 1 0 246.515V-16c0-26.51 21.49-48 48-48h416c26.51 0 48 21.49 48 48v262.491a48 48 0 0 1-17.414 36.993zM464-10a6 6 0 0 0-6-6H54a6 6 0 0 0-6 6v253.653c0 1.813.816 3.526 2.226 4.665 15.87 12.814 108.793 87.554 132.364 106.293C200.755 369.12 232.398 400 256 400c23.693 0 55.857-31.369 73.41-45.389 23.573-18.741 116.503-93.493 132.366-106.316a5.99 5.99 0 0 0 2.224-4.663V-10zm-31.991 187.704c4.249-5.159 3.465-12.795-1.745-16.981-28.975-23.283-59.274-47.597-70.929-56.863C336.636 85.717 299.205 48 256 48c-43.452 0-81.287 38.237-103.335 55.86-11.279 8.967-41.744 33.413-70.927 56.865-5.21 4.187-5.993 11.822-1.745 16.981l15.258 18.528c4.178 5.073 11.657 5.843 16.779 1.726 28.618-23.001 58.566-47.035 70.56-56.571C200.143 127.369 232.307 96 256 96c23.602 0 55.246 30.88 73.41 45.389 11.994 9.535 41.944 33.57 70.563 56.568 5.122 4.116 12.601 3.346 16.778-1.727l15.258-18.526z"/><glyph glyph-name="envelope" unicode="" horiz-adv-x="512" d="M464 384H48c-26.51 0-48-21.49-48-48V48C0 21.49 21.49 0 48 0h416c26.51 0 48 21.49 48 48v288c0 26.51-21.49 48-48 48zm0-48v-40.805c-22.422-18.259-58.168-46.651-134.587-106.49-16.841-13.247-50.201-45.072-73.413-44.701-23.208-.375-56.579 31.459-73.413 44.701C106.18 248.535 70.425 276.933 48 295.195V336h416zM48 48v185.602c22.914-18.251 55.409-43.862 104.938-82.646C174.795 133.751 213.072 95.77 256 96.001c42.717-.231 80.509 37.199 103.053 54.947 49.528 38.783 82.032 64.401 104.947 82.653V48H48z"/><glyph glyph-name="eye-slash" unicode="" horiz-adv-x="576" d="M272.702 88.861c-80.483 9.011-136.212 86.886-116.93 167.042l116.93-167.042zM288 56C185.444 56 95.908 110.701 48 192c21.755 36.917 52.1 68.342 88.344 91.658l-27.541 39.343C67.001 295.766 31.921 259.259 6.646 216.369a47.999 47.999 0 0 1 0-48.739C63.004 71.994 168.14 8 288 8a332.89 332.89 0 0 1 39.648 2.367l-32.021 45.744A284.16 284.16 0 0 0 288 56zm281.354 111.631C536.122 111.237 485.933 65.889 425.8 38.139l48.116-68.74c3.801-5.429 2.48-12.912-2.949-16.712L450.23-61.83c-5.429-3.801-12.912-2.48-16.712 2.949L102.084 414.601c-3.801 5.429-2.48 12.912 2.949 16.712l20.737 14.517c5.429 3.801 12.912 2.48 16.712-2.949l55.526-79.325C226.612 371.657 256.808 376 288 376c119.86 0 224.996-63.994 281.354-159.631a48.002 48.002 0 0 0 0-48.738zM528 192c-44.157 74.933-123.677 127.27-216.162 135.007C302.042 316.922 296 303.17 296 288c0-30.928 25.072-56 56-56s56 25.072 56 56l-.001.042c30.632-57.277 16.739-130.26-36.928-171.719l26.695-38.135C452.626 101.449 498.308 141.614 528 192z"/><glyph glyph-name="eye" unicode="" horiz-adv-x="576" d="M569.354 216.369C512.97 312.051 407.81 376 288 376 168.14 376 63.004 312.006 6.646 216.369a47.999 47.999 0 0 1 0-48.739C63.031 71.949 168.19 8 288 8c119.86 0 224.996 63.994 281.354 159.631a47.997 47.997 0 0 1 0 48.738zM288 56C185.444 56 95.909 110.701 48 192c44.157 74.933 123.677 127.27 216.162 135.007C273.958 316.922 280 303.17 280 288c0-30.928-25.072-56-56-56s-56 25.072-56 56l.001.042C157.794 268.957 152 247.156 152 224c0-75.111 60.889-136 136-136s136 60.889 136 136c0 31.031-10.4 59.629-27.895 82.515C451.704 283.362 498.009 242.894 528 192 480.092 110.701 390.556 56 288 56z"/><glyph glyph-name="file-alt" unicode="" horiz-adv-x="384" d="M288 200v-28c0-6.6-5.4-12-12-12H108c-6.6 0-12 5.4-12 12v28c0 6.6 5.4 12 12 12h168c6.6 0 12-5.4 12-12zm-12-72H108c-6.6 0-12-5.4-12-12V88c0-6.6 5.4-12 12-12h168c6.6 0 12 5.4 12 12v28c0 6.6-5.4 12-12 12zm108 188.1V-16c0-26.5-21.5-48-48-48H48C21.5-64 0-42.5 0-16v416c0 26.5 21.5 48 48 48h204.1c12.7 0 24.9-5.1 33.9-14.1l83.9-83.9c9-8.9 14.1-21.2 14.1-33.9zm-128 80V320h76.1L256 396.1zM336-16v288H232c-13.3 0-24 10.7-24 24v104H48V-16h288z"/><glyph glyph-name="file-archive" unicode="" horiz-adv-x="384" d="M369.941 350.059l-83.882 83.882A48 48 0 0 1 252.118 448H48c-26.51 0-48-21.49-48-48V-16c0-26.51 21.49-48 48-48h288c26.51 0 48 21.49 48 48v332.118a48 48 0 0 1-14.059 33.941zM256 396.118L332.118 320H256v76.118zM336-16H48v416h79.714v-16h32v16H208V296c0-13.255 10.745-24 24-24h104V-16zM192.27 352h-32v32h32v-32zm-32 0v-32h-32v32h32zm0-64v-32h-32v32h32zm32 0h-32v32h32v-32zm1.909-105.678A12 12 0 0 1 182.406 192H160.27v32h-32v-32l-19.69-97.106C101.989 62.389 126.834 32 160 32c33.052 0 57.871 30.192 51.476 62.62l-17.297 87.702zM160.27 57.927c-17.918 0-32.444 12.105-32.444 27.036 0 14.932 14.525 27.036 32.444 27.036s32.444-12.105 32.444-27.036c0-14.931-14.526-27.036-32.444-27.036zm32 166.073h-32v32h32v-32z"/><glyph glyph-name="file-audio" unicode="" horiz-adv-x="384" d="M369.941 350.059l-83.882 83.882A48 48 0 0 1 252.118 448H48c-26.51 0-48-21.49-48-48V-16c0-26.51 21.49-48 48-48h288c26.51 0 48 21.49 48 48v332.118a48 48 0 0 1-14.059 33.941zM332.118 320H256v76.118L332.118 320zM48-16v416h160V296c0-13.255 10.745-24 24-24h104V-16H48zm144 76.024c0-10.691-12.926-16.045-20.485-8.485L136 87.514h-28c-6.627 0-12 5.373-12 12v56c0 6.627 5.373 12 12 12h28l35.515 36.947c7.56 7.56 20.485 2.206 20.485-8.485V60.024zm41.201 47.13c9.051 9.297 9.06 24.133.001 33.439-22.149 22.752 12.235 56.246 34.395 33.481 27.198-27.94 27.212-72.444.001-100.401-21.793-22.386-56.947 10.315-34.397 33.481z"/><glyph glyph-name="file-code" unicode="" horiz-adv-x="384" d="M369.941 350.059l-83.882 83.882A48 48 0 0 1 252.118 448H48c-26.51 0-48-21.49-48-48V-16c0-26.51 21.49-48 48-48h288c26.51 0 48 21.49 48 48v332.118a48 48 0 0 1-14.059 33.941zM332.118 320H256v76.118L332.118 320zM48-16v416h160V296c0-13.255 10.745-24 24-24h104V-16H48zM149.677 99.115L116.854 128l32.822 28.885a8.793 8.793 0 0 1 .605 12.624l-17.403 18.564c-3.384 3.613-8.964 3.662-12.438.401L62.78 134.42c-3.703-3.474-3.704-9.367.001-12.84l57.659-54.055a8.738 8.738 0 0 1 6.012-2.381 8.746 8.746 0 0 1 6.427 2.782l17.403 18.563a8.795 8.795 0 0 1-.605 12.626zm84.284 127.85l-24.401 7.084a8.796 8.796 0 0 1-10.905-5.998L144.04 39.939c-1.353-4.66 1.338-9.552 5.998-10.905l24.403-7.084c4.68-1.355 9.557 1.354 10.905 5.998l54.612 188.112c1.354 4.66-1.337 9.552-5.997 10.905zm87.258-92.545l-57.658 54.055c-3.526 3.307-9.099 3.165-12.439-.401l-17.403-18.563a8.795 8.795 0 0 1 .605-12.625L267.146 128l-32.822-28.885a8.793 8.793 0 0 1-.605-12.624l17.403-18.564a8.797 8.797 0 0 1 12.439-.401h-.001l57.66 54.055c3.703 3.473 3.703 9.366-.001 12.839z"/><glyph glyph-name="file-excel" unicode="" horiz-adv-x="384" d="M369.9 350.1L286 434c-9 9-21.2 14.1-33.9 14.1H48C21.5 448 0 426.5 0 400V-16c0-26.5 21.5-48 48-48h288c26.5 0 48 21.5 48 48v332.1c0 12.7-5.1 25-14.1 34zM332.1 320H256v76.1l76.1-76.1zM48-16v416h160V296c0-13.3 10.7-24 24-24h104V-16H48zm212 240h-28.8c-4.4 0-8.4-2.4-10.5-6.3-18-33.1-22.2-42.4-28.6-57.7-13.9 29.1-6.9 17.3-28.6 57.7-2.1 3.9-6.2 6.3-10.6 6.3H124c-9.3 0-15-10-10.4-18l46.3-78-46.3-78c-4.7-8 1.1-18 10.4-18h28.9c4.4 0 8.4 2.4 10.5 6.3 21.7 40 23 45 28.6 57.7 14.9-30.2 5.9-15.9 28.6-57.7 2.1-3.9 6.2-6.3 10.6-6.3H260c9.3 0 15 10 10.4 18L224 128c.7 1.1 30.3 50.5 46.3 78 4.7 8-1.1 18-10.3 18z"/><glyph glyph-name="file-image" unicode="" horiz-adv-x="384" d="M369.9 350.1L286 434c-9 9-21.2 14.1-33.9 14.1H48C21.5 448 0 426.5 0 400V-16c0-26.5 21.5-48 48-48h288c26.5 0 48 21.5 48 48v332.1c0 12.7-5.1 25-14.1 34zM332.1 320H256v76.1l76.1-76.1zM48-16v416h160V296c0-13.3 10.7-24 24-24h104V-16H48zm32 48h224v128l-23.5 23.5c-4.7 4.7-12.3 4.7-17 0L176 96l-39.5 39.5c-4.7 4.7-12.3 4.7-17 0L80 96V32zm48 240c-26.5 0-48-21.5-48-48s21.5-48 48-48 48 21.5 48 48-21.5 48-48 48z"/><glyph glyph-name="file-pdf" unicode="" horiz-adv-x="384" d="M369.9 350.1L286 434c-9 9-21.2 14.1-33.9 14.1H48C21.5 448 0 426.5 0 400V-16c0-26.5 21.5-48 48-48h288c26.5 0 48 21.5 48 48v332.1c0 12.7-5.1 25-14.1 34zM332.1 320H256v76.1l76.1-76.1zM48-16v416h160V296c0-13.3 10.7-24 24-24h104V-16H48zm250.2 143.7c-12.2 12-47 8.7-64.4 6.5-17.2 10.5-28.7 25-36.8 46.3 3.9 16.1 10.1 40.6 5.4 56-4.2 26.2-37.8 23.6-42.6 5.9-4.4-16.1-.4-38.5 7-67.1-10-23.9-24.9-56-35.4-74.4-20-10.3-47-26.2-51-46.2-3.3-15.8 26-55.2 76.1 31.2 22.4 7.4 46.8 16.5 68.4 20.1 18.9-10.2 41-17 55.8-17 25.5 0 28 28.2 17.5 38.7zM100.1 49.9c5.1 13.7 24.5 29.5 30.4 35-19-30.3-30.4-35.7-30.4-35zm81.6 190.6c7.4 0 6.7-32.1 1.8-40.8-4.4 13.9-4.3 40.8-1.8 40.8zm-24.4-136.6c9.7 16.9 18 37 24.7 54.7 8.3-15.1 18.9-27.2 30.1-35.5-20.8-4.3-38.9-13.1-54.8-19.2zm131.6 5s-5-6-37.3 7.8c35.1 2.6 40.9-5.4 37.3-7.8z"/><glyph glyph-name="file-powerpoint" unicode="" horiz-adv-x="384" d="M369.9 350.1L286 434c-9 9-21.2 14.1-33.9 14.1H48C21.5 448 0 426.5 0 400V-16c0-26.5 21.5-48 48-48h288c26.5 0 48 21.5 48 48v332.1c0 12.7-5.1 25-14.1 34zM332.1 320H256v76.1l76.1-76.1zM48-16v416h160V296c0-13.3 10.7-24 24-24h104V-16H48zm72 60v168c0 6.6 5.4 12 12 12h69.2c36.7 0 62.8-27 62.8-66.3 0-74.3-68.7-66.5-95.5-66.5V44c0-6.6-5.4-12-12-12H132c-6.6 0-12 5.4-12 12zm48.5 87.4h23c7.9 0 13.9 2.4 18.1 7.2 8.5 9.8 8.4 28.5.1 37.8-4.1 4.6-9.9 7-17.4 7h-23.9v-52z"/><glyph glyph-name="file-video" unicode="" horiz-adv-x="384" d="M369.941 350.059l-83.882 83.882A48 48 0 0 1 252.118 448H48c-26.51 0-48-21.49-48-48V-16c0-26.51 21.49-48 48-48h288c26.51 0 48 21.49 48 48v332.118a48 48 0 0 1-14.059 33.941zM332.118 320H256v76.118L332.118 320zM48-16v416h160V296c0-13.255 10.745-24 24-24h104V-16H48zm228.687 211.303L224 142.626V180c0 11.046-8.954 20-20 20H100c-11.046 0-20-8.954-20-20V76c0-11.046 8.954-20 20-20h104c11.046 0 20 8.954 20 20v37.374L276.687 60.7C286.704 50.682 304 57.72 304 72.014v111.975c0 14.311-17.309 21.319-27.313 11.314z"/><glyph glyph-name="file-word" unicode="" horiz-adv-x="384" d="M369.9 350.1L286 434c-9 9-21.2 14.1-33.9 14.1H48C21.5 448 0 426.5 0 400V-16c0-26.5 21.5-48 48-48h288c26.5 0 48 21.5 48 48v332.1c0 12.7-5.1 25-14.1 34zM332.1 320H256v76.1l76.1-76.1zM48-16v416h160V296c0-13.3 10.7-24 24-24h104V-16H48zm220.1 208c-5.7 0-10.6-4-11.7-9.5-20.6-97.7-20.4-95.4-21-103.5-.2 1.2-.4 2.6-.7 4.3-.8 5.1.3-.2-23.6 99.5-1.3 5.4-6.1 9.2-11.7 9.2h-13.3c-5.5 0-10.3-3.8-11.7-9.1-24.4-99-24-96.2-24.8-103.7-.1 1.1-.2 2.5-.5 4.2-.7 5.2-14.1 73.3-19.1 99-1.1 5.6-6 9.7-11.8 9.7h-16.8c-7.8 0-13.5-7.3-11.7-14.8 8-32.6 26.7-109.5 33.2-136 1.3-5.4 6.1-9.1 11.7-9.1h25.2c5.5 0 10.3 3.7 11.6 9.1l17.9 71.4c1.5 6.2 2.5 12 3 17.3l2.9-17.3c.1-.4 12.6-50.5 17.9-71.4 1.3-5.3 6.1-9.1 11.6-9.1h24.7c5.5 0 10.3 3.7 11.6 9.1 20.8 81.9 30.2 119 34.5 136 1.9 7.6-3.8 14.9-11.6 14.9h-15.8z"/><glyph glyph-name="file" unicode="" horiz-adv-x="384" d="M369.9 350.1L286 434c-9 9-21.2 14.1-33.9 14.1H48C21.5 448 0 426.5 0 400V-16c0-26.5 21.5-48 48-48h288c26.5 0 48 21.5 48 48v332.1c0 12.7-5.1 25-14.1 34zM332.1 320H256v76.1l76.1-76.1zM48-16v416h160V296c0-13.3 10.7-24 24-24h104V-16H48z"/><glyph glyph-name="flag" unicode="" horiz-adv-x="512" d="M336.174 368c-49.132 0-93.305 32-161.913 32-31.301 0-58.303-6.482-80.721-15.168a48.04 48.04 0 0 1 2.142 20.727c-2.615 22.866-21.515 40.847-44.481 42.337C23.242 449.71 0 427.569 0 400c0-17.764 9.657-33.262 24-41.562V-48c0-8.837 7.163-16 16-16h16c8.837 0 16 7.163 16 16v83.443C109.869 52.72 143.259 64 199.826 64c49.132 0 93.305-32 161.913-32 58.479 0 101.972 22.617 128.548 39.981C503.846 80.839 512 95.949 512 112.145v239.918c0 34.459-35.264 57.768-66.904 44.117C409.193 380.691 371.641 368 336.174 368zM464 112c-21.783-15.412-60.824-32-102.261-32-59.945 0-102.002 32-161.913 32-43.361 0-96.379-9.403-127.826-24v232c21.784 15.412 60.824 32 102.261 32 59.945 0 102.002-32 161.913-32 43.271 0 96.32 17.366 127.826 32V112z"/><glyph glyph-name="flushed" unicode="" horiz-adv-x="496" d="M248 440C111 440 0 329 0 192S111-56 248-56 496 55 496 192 385 440 248 440zm0-448C137.7-8 48 81.7 48 192s89.7 200 200 200 200-89.7 200-200S358.3-8 248-8zm96 312c-44.2 0-80-35.8-80-80s35.8-80 80-80 80 35.8 80 80-35.8 80-80 80zm0-128c-26.5 0-48 21.5-48 48s21.5 48 48 48 48-21.5 48-48-21.5-48-48-48zm0 72c-13.3 0-24-10.7-24-24s10.7-24 24-24 24 10.7 24 24-10.7 24-24 24zm-112-24c0 44.2-35.8 80-80 80s-80-35.8-80-80 35.8-80 80-80 80 35.8 80 80zm-80-48c-26.5 0-48 21.5-48 48s21.5 48 48 48 48-21.5 48-48-21.5-48-48-48zm0 72c-13.3 0-24-10.7-24-24s10.7-24 24-24 24 10.7 24 24-10.7 24-24 24zm160-144H184c-13.2 0-24-10.8-24-24s10.8-24 24-24h128c13.2 0 24 10.8 24 24s-10.8 24-24 24z"/><glyph glyph-name="folder-open" unicode="" horiz-adv-x="576" d="M527.943 224H480v48c0 26.51-21.49 48-48 48H272l-64 64H48c-26.51 0-48-21.49-48-48V48C0 21.49 21.49 0 48 0h400a48.001 48.001 0 0 1 40.704 22.56l79.942 128c19.948 31.917-3.038 73.44-40.703 73.44zM54 336h134.118l64-64H426a6 6 0 0 0 6-6v-42H152a48 48 0 0 1-41.098-23.202L48 96.551v233.456A5.993 5.993 0 0 0 54 336zM448 48H72l77.234 128H528L448 48z"/><glyph glyph-name="folder" unicode="" horiz-adv-x="512" d="M464 320H272l-54.63 54.63c-6 6-14.14 9.37-22.63 9.37H48c-26.51 0-48-21.49-48-48V48C0 21.49 21.49 0 48 0h416c26.51 0 48 21.49 48 48v224c0 26.51-21.49 48-48 48zm0-272H48v288h140.12l54.63-54.63c6-6 14.14-9.37 22.63-9.37H464V48z"/><glyph glyph-name="frown-open" unicode="" horiz-adv-x="496" d="M248 440C111 440 0 329 0 192S111-56 248-56 496 55 496 192 385 440 248 440zm0-448C137.7-8 48 81.7 48 192s89.7 200 200 200 200-89.7 200-200S358.3-8 248-8zm-48 248c0 17.7-14.3 32-32 32s-32-14.3-32-32 14.3-32 32-32 32 14.3 32 32zm128 32c-17.7 0-32-14.3-32-32s14.3-32 32-32 32 14.3 32 32-14.3 32-32 32zm-80-112c-35.6 0-88.8-21.3-95.8-61.2-2-11.8 9-21.5 20.5-18.1C203.9 90.3 232.1 96 248 96s44.1-5.7 75.3-15.3c11.4-3.5 22.5 6.3 20.5 18.1-7 39.9-60.2 61.2-95.8 61.2z"/><glyph glyph-name="frown" unicode="" horiz-adv-x="496" d="M248 440C111 440 0 329 0 192S111-56 248-56 496 55 496 192 385 440 248 440zm0-448C137.7-8 48 81.7 48 192s89.7 200 200 200 200-89.7 200-200S358.3-8 248-8zm-80 216c17.7 0 32 14.3 32 32s-14.3 32-32 32-32-14.3-32-32 14.3-32 32-32zm160 64c-17.7 0-32-14.3-32-32s14.3-32 32-32 32 14.3 32 32-14.3 32-32 32zm-80-128c-40.2 0-78-17.7-103.8-48.6-8.5-10.2-7.1-25.3 3.1-33.8 10.2-8.4 25.3-7.1 33.8 3.1 16.6 19.9 41 31.4 66.9 31.4s50.3-11.4 66.9-31.4c8.1-9.7 23.1-11.9 33.8-3.1 10.2 8.5 11.5 23.6 3.1 33.8C326 126.3 288.2 144 248 144z"/><glyph glyph-name="futbol" unicode="" horiz-adv-x="496" d="M483.8 268.6C449.8 373.4 352.6 440 248.1 440c-25.4 0-51.2-3.9-76.7-12.2C41.2 385.5-30.1 245.6 12.2 115.4 46.2 10.6 143.4-56 247.9-56c25.4 0 51.2 3.9 76.7 12.2C454.8-1.5 526.1 138.4 483.8 268.6zM409.3 74.9l-52.2-6.4-43.7 60.9 24.4 75.2 71.1 22.1 38.9-36.4c-.2-30.7-7.4-61.1-21.7-89.2-4.7-9.3-10.7-17.8-16.8-26.2zm0 235.4l-10.4-53.1-70.7-22-64.2 46.5v73.8l47.4 26.2c39.2-13 73.4-38 97.9-71.4zm-224.4 71.3l47.1-26.1v-73.8l-64.2-46.5-70.6 22-10.1 52.5c24.3 33.4 57.9 58.6 97.8 71.9zM139 68.5L85.9 75c-14.4 20.1-37.3 59.6-37.8 115.3l39 36.4 71.1-22.2 24.3-74.3L139 68.5zm48.2-67l-22.4 48.1 43.6 61.7H287l44.3-61.7-22.4-48.1c-6.2-1.8-57.6-20.4-121.7 0z"/><glyph glyph-name="gem" unicode="" horiz-adv-x="576" d="M464 448H112c-4 0-7.8-2-10-5.4L2 295.4c-2.9-4.4-2.6-10.2.7-14.2l276-340.8c4.8-5.9 13.8-5.9 18.6 0l276 340.8c3.3 4.1 3.6 9.8.7 14.2l-99.9 147.2c-2.3 3.4-6 5.4-10.1 5.4zm-19.3-48l63.3-96h-68.4l-51.7 96h56.8zm-202.1 0h90.7l51.7-96H191l51.6 96zm-111.3 0h56.8l-51.7-96H68l63.3 96zm-43-144h51.4L208 96 88.3 256zm102.9 0h193.6L288 12.7 191.2 256zM368 96l68.2 160h51.4L368 96z"/><glyph glyph-name="grimace" unicode="" horiz-adv-x="496" d="M248 440C111 440 0 329 0 192S111-56 248-56 496 55 496 192 385 440 248 440zm0-448C137.7-8 48 81.7 48 192s89.7 200 200 200 200-89.7 200-200S358.3-8 248-8zm-80 216c17.7 0 32 14.3 32 32s-14.3 32-32 32-32-14.3-32-32 14.3-32 32-32zm160 0c17.7 0 32 14.3 32 32s-14.3 32-32 32-32-14.3-32-32 14.3-32 32-32zm16-16H152c-26.5 0-48-21.5-48-48v-32c0-26.5 21.5-48 48-48h192c26.5 0 48 21.5 48 48v32c0 26.5-21.5 48-48 48zM176 96h-24c-8.8 0-16 7.2-16 16v8h40V96zm0 40h-40v8c0 8.8 7.2 16 16 16h24v-24zm64-40h-48v24h48V96zm0 40h-48v24h48v-24zm64-40h-48v24h48V96zm0 40h-48v24h48v-24zm56-24c0-8.8-7.2-16-16-16h-24v24h40v-8zm0 24h-40v24h24c8.8 0 16-7.2 16-16v-8z"/><glyph glyph-name="grin-alt" unicode="" horiz-adv-x="496" d="M200.3 200c12.4 18.7 15.1 37.3 15.7 56-.5 18.7-3.3 37.3-15.7 56-8 12-25.1 11.4-32.7 0-12.4-18.7-15.1-37.3-15.7-56 .5-18.7 3.3-37.3 15.7-56 8.1-12 25.2-11.4 32.7 0zm128 0c12.4 18.7 15.1 37.3 15.7 56-.5 18.7-3.3 37.3-15.7 56-8 12-25.1 11.4-32.7 0-12.4-18.7-15.1-37.3-15.7-56 .5-18.7 3.3-37.3 15.7-56 8.1-12 25.2-11.4 32.7 0zM248 440C111 440 0 329 0 192S111-56 248-56 496 55 496 192 385 440 248 440zm0-448C137.7-8 48 81.7 48 192s89.7 200 200 200 200-89.7 200-200S358.3-8 248-8zm105.6 151.4c-25.9-8.3-64.4-13.1-105.6-13.1s-79.6 4.8-105.6 13.1c-9.9 3.1-19.4-5.3-17.7-15.3 7.9-47.2 71.3-80 123.3-80s115.3 32.9 123.3 80c1.6 9.8-7.7 18.4-17.7 15.3z"/><glyph glyph-name="grin-beam-sweat" unicode="" horiz-adv-x="496" d="M440 288c29.5 0 53.3 26.3 53.3 58.7 0 25-31.7 75.5-46.2 97.3-3.6 5.3-10.7 5.3-14.2 0-14.5-21.8-46.2-72.3-46.2-97.3 0-32.4 23.8-58.7 53.3-58.7zM248 48c51.9 0 115.3 32.9 123.3 80 1.7 9.9-7.7 18.5-17.7 15.3-25.9-8.3-64.4-13.1-105.6-13.1s-79.6 4.8-105.6 13.1c-9.8 3.1-19.4-5.3-17.7-15.3 8-47.1 71.4-80 123.3-80zm130.3 168.3c3.6 1.1 6 4.5 5.7 8.3-3.3 42.1-32.2 71.4-56 71.4s-52.7-29.3-56-71.4c-.3-3.7 2.1-7.2 5.7-8.3 3.5-1.1 7.4.5 9.3 3.7l9.5 17c7.7 13.7 19.2 21.6 31.5 21.6s23.8-7.9 31.5-21.6l9.5-17c2.1-3.6 6.2-4.6 9.3-3.7zm105.3 52.9c-24.6-15.7-46-12.9-46.4-12.9 6.9-20.2 10.8-41.8 10.8-64.3C448 81.7 358.3-8 248-8S48 81.7 48 192s89.7 200 200 200c39.8 0 76.8-11.8 108-31.9 1.7 9.5 6.3 24.1 17.2 45.7C336.4 427.4 293.7 440 248 440 111 440 0 329 0 192S111-56 248-56 496 55 496 192c0 27-4.4 52.9-12.4 77.2zM168 258.6c12.3 0 23.8-7.9 31.5-21.6l9.5-17c2.1-3.7 6.2-4.7 9.3-3.7 3.6 1.1 6 4.5 5.7 8.3-3.3 42.1-32.2 71.4-56 71.4s-52.7-29.3-56-71.4c-.3-3.7 2.1-7.2 5.7-8.3 3.5-1.1 7.4.5 9.3 3.7l9.5 17c7.7 13.8 19.2 21.6 31.5 21.6z"/><glyph glyph-name="grin-beam" unicode="" horiz-adv-x="496" d="M248 440C111 440 0 329 0 192S111-56 248-56 496 55 496 192 385 440 248 440zm0-448C137.7-8 48 81.7 48 192s89.7 200 200 200 200-89.7 200-200S358.3-8 248-8zm105.6 151.4c-25.9-8.3-64.4-13.1-105.6-13.1s-79.6 4.8-105.6 13.1c-9.8 3.1-19.4-5.3-17.7-15.3 7.9-47.1 71.3-80 123.3-80s115.3 32.9 123.3 80c1.6 9.8-7.7 18.4-17.7 15.3zm-235.9 72.9c3.5-1.1 7.4.5 9.3 3.7l9.5 17c7.7 13.7 19.2 21.6 31.5 21.6s23.8-7.9 31.5-21.6l9.5-17c2.1-3.7 6.2-4.7 9.3-3.7 3.6 1.1 6 4.5 5.7 8.3-3.3 42.1-32.2 71.4-56 71.4s-52.7-29.3-56-71.4c-.3-3.7 2.1-7.2 5.7-8.3zm160 0c3.5-1.1 7.4.5 9.3 3.7l9.5 17c7.7 13.7 19.2 21.6 31.5 21.6s23.8-7.9 31.5-21.6l9.5-17c2.1-3.7 6.2-4.7 9.3-3.7 3.6 1.1 6 4.5 5.7 8.3-3.3 42.1-32.2 71.4-56 71.4s-52.7-29.3-56-71.4c-.3-3.7 2.1-7.2 5.7-8.3z"/><glyph glyph-name="grin-hearts" unicode="" horiz-adv-x="496" d="M353.6 143.4c-25.9-8.3-64.4-13.1-105.6-13.1s-79.6 4.8-105.6 13.1c-9.8 3.1-19.4-5.3-17.7-15.3 7.9-47.2 71.3-80 123.3-80s115.3 32.9 123.3 80c1.6 9.8-7.7 18.4-17.7 15.3zm-152.8 48.9c4.5-1.2 9.2 1.5 10.5 6l19.4 69.9c5.6 20.3-7.4 41.1-28.8 44.5-18.6 3-36.4-9.8-41.5-27.9l-2-7.1-7.1 1.9c-18.2 4.7-38.2-4.3-44.9-22-7.7-20.2 3.8-41.9 24.2-47.2l70.2-18.1zm188.8 65.3c-6.7 17.6-26.7 26.7-44.9 22l-7.1-1.9-2 7.1c-5 18.1-22.8 30.9-41.5 27.9-21.4-3.4-34.4-24.2-28.8-44.5l19.4-69.9c1.2-4.5 5.9-7.2 10.5-6l70.2 18.2c20.4 5.3 31.9 26.9 24.2 47.1zM248 440C111 440 0 329 0 192S111-56 248-56 496 55 496 192 385 440 248 440zm0-448C137.7-8 48 81.7 48 192s89.7 200 200 200 200-89.7 200-200S358.3-8 248-8z"/><glyph glyph-name="grin-squint-tears" unicode="" horiz-adv-x="512" d="M117.1 63.9c-25.8-3.7-84-13.7-100.9-30.6-21.9-21.9-21.5-57.9.9-80.3s58.3-22.8 80.3-.9C114.3-31 124.3 27.2 128 53c.8 6.4-4.6 11.8-10.9 10.9zm-41.2 41.7C40.3 180 53 271.9 114.6 333.4c37.8 37.8 88 58.6 141.4 58.6 36.2 0 70.8-9.8 101.2-27.7 3.8 20.3 8 36.1 12 48.3C333.8 430.8 294.9 440 256 440c-63.5 0-126.9-24.2-175.4-72.6-74.1-74.1-91.3-183.4-52-274 12.2 4.1 27.7 8.3 47.3 12.2zm352.3 187.6c45-76.6 34.9-176.9-30.8-242.6C359.6 12.8 309.4-8 256-8c-30.5 0-59.8 7-86.4 19.8-3.9-19.5-8-35-12.2-47.2C188.8-49 222.4-56 256.1-56c63.5 0 126.9 24.2 175.4 72.6 78.1 78.1 93.1 195.4 45.2 288.6-12.3-4-28.2-8.1-48.5-12zm-33.3 26.9c25.8 3.7 84 13.7 100.9 30.6 21.9 21.9 21.5 57.9-.9 80.3s-58.3 22.8-80.3.9C397.7 415 387.7 356.8 384 331c-.8-6.4 4.6-11.8 10.9-10.9zm-187-108.3c-3 3-7.2 4.2-11.4 3.2L106 192.3c-5.7-1.4-9.5-6.7-9.1-12.6.5-5.8 5.1-10.5 10.9-11l52.3-4.8 4.8-52.3c.5-5.8 5.2-10.4 11-10.9h.9c5.5 0 10.3 3.7 11.7 9.1l22.6 90.5c1 4.2-.2 8.5-3.2 11.5zm39.7 25.1l90.5 22.6c5.7 1.4 9.5 6.7 9.1 12.6-.5 5.8-5.1 10.5-10.9 11l-52.3 4.8-4.8 52.3c-.5 5.8-5.2 10.4-11 10.9-5.6.1-11.2-3.4-12.6-9.1L233 251.5c-1-4.1.2-8.4 3.2-11.4 5-5 11.3-3.2 11.4-3.2zm52-88.5c-29.1-29.1-59.7-52.9-83.9-65.4-9.2-4.8-10-17.5-1.7-23.4 38.9-27.7 107-6.2 143.7 30.6S416 195 388.3 233.9c-5.8 8.2-18.5 7.6-23.4-1.7-12.3-24.2-36.2-54.7-65.3-83.8z"/><glyph glyph-name="grin-squint" unicode="" horiz-adv-x="496" d="M248 440C111 440 0 329 0 192S111-56 248-56 496 55 496 192 385 440 248 440zm0-448C137.7-8 48 81.7 48 192s89.7 200 200 200 200-89.7 200-200S358.3-8 248-8zm105.6 151.4c-25.9-8.3-64.4-13.1-105.6-13.1s-79.6 4.8-105.6 13.1c-9.9 3.1-19.4-5.4-17.7-15.3 7.9-47.1 71.3-80 123.3-80s115.3 32.9 123.3 80c1.6 9.8-7.7 18.4-17.7 15.3zm-234.7 40.8c3.6-4.2 9.9-5.7 15.3-2.5l80 48c3.6 2.2 5.8 6.1 5.8 10.3s-2.2 8.1-5.8 10.3l-80 48c-5.1 3-11.4 1.9-15.3-2.5-3.8-4.5-3.8-11-.1-15.5l33.6-40.3-33.6-40.3c-3.8-4.5-3.7-11.1.1-15.5zm242.9-2.5c5.4-3.2 11.7-1.7 15.3 2.5 3.8 4.5 3.8 11 .1 15.5L343.6 240l33.6 40.3c3.8 4.5 3.7 11-.1 15.5-3.8 4.4-10.2 5.4-15.3 2.5l-80-48c-3.6-2.2-5.8-6.1-5.8-10.3s2.2-8.1 5.8-10.3l80-48z"/><glyph glyph-name="grin-stars" unicode="" horiz-adv-x="496" d="M248 440C111 440 0 329 0 192S111-56 248-56 496 55 496 192 385 440 248 440zm0-448C137.7-8 48 81.7 48 192s89.7 200 200 200 200-89.7 200-200S358.3-8 248-8zm105.6 151.4c-25.9-8.3-64.4-13.1-105.6-13.1s-79.6 4.8-105.6 13.1c-9.8 3.1-19.4-5.3-17.7-15.3 7.9-47.2 71.3-80 123.3-80s115.3 32.9 123.3 80c1.6 9.8-7.7 18.4-17.7 15.3zm-227.9 57.5c-1-6.2 5.4-11 11-7.9l31.3 16.3 31.3-16.3c5.6-3.1 12 1.7 11 7.9l-6 34.9 25.4 24.6c4.5 4.5 1.9 12.2-4.3 13.2l-34.9 5-15.5 31.6c-2.9 5.8-11 5.8-13.9 0l-15.5-31.6-34.9-5c-6.2-.9-8.9-8.6-4.3-13.2l25.4-24.6-6.1-34.9zm259.7 72.7l-34.9 5-15.5 31.6c-2.9 5.8-11 5.8-13.9 0l-15.5-31.6-34.9-5c-6.2-.9-8.9-8.6-4.3-13.2l25.4-24.6-6-34.9c-1-6.2 5.4-11 11-7.9l31.3 16.3 31.3-16.3c5.6-3.1 12 1.7 11 7.9l-6 34.9 25.4 24.6c4.5 4.6 1.8 12.2-4.4 13.2z"/><glyph glyph-name="grin-tears" unicode="" horiz-adv-x="640" d="M117.1 191.9c-25.8-3.7-84-13.7-100.9-30.6-21.9-21.9-21.5-57.9.9-80.3s58.3-22.8 80.3-.9C114.3 97 124.3 155.2 128 181c.8 6.4-4.6 11.8-10.9 10.9zm506.7-30.6c-16.9 16.9-75.1 26.9-100.9 30.6-6.3.9-11.7-4.5-10.8-10.8 3.7-25.8 13.7-84 30.6-100.9 21.9-21.9 57.9-21.5 80.3.9 22.3 22.3 22.7 58.3.8 80.2zM497.2 99.6C463.8 35.7 396.9-8 320-8 243.1-8 176.2 35.7 142.8 99.6c-12.5-37.4-25.2-43.9-28.3-46.5C159.1-12.7 234.5-56 320-56S480.9-12.7 525.5 53.1c-3.2 2.7-15.9 9.2-28.3 46.5zM122.7 223.5C137.9 318.8 220.5 392 320 392c99.5 0 182.1-73.2 197.3-168.5 2.1.2 5.2 2.4 49.5-7C554.4 342 448.7 440 320 440S85.6 342 73.2 216.6c44.5 9.4 47.1 7.2 49.5 6.9zM320 48c51.9 0 115.3 32.9 123.3 80 1.7 9.9-7.7 18.5-17.7 15.3-25.9-8.3-64.4-13.1-105.6-13.1s-79.6 4.8-105.6 13.1c-9.8 3.1-19.4-5.3-17.7-15.3 8-47.1 71.4-80 123.3-80zm130.3 168.3c3.6 1.1 6 4.5 5.7 8.3-3.3 42.1-32.2 71.4-56 71.4s-52.7-29.3-56-71.4c-.3-3.7 2.1-7.2 5.7-8.3 3.5-1.1 7.4.5 9.3 3.7l9.5 17c7.7 13.7 19.2 21.6 31.5 21.6s23.8-7.9 31.5-21.6l9.5-17c2.1-3.6 6.2-4.6 9.3-3.7zM240 258.6c12.3 0 23.8-7.9 31.5-21.6l9.5-17c2.1-3.7 6.2-4.7 9.3-3.7 3.6 1.1 6 4.5 5.7 8.3-3.3 42.1-32.2 71.4-56 71.4s-52.7-29.3-56-71.4c-.3-3.7 2.1-7.2 5.7-8.3 3.5-1.1 7.4.5 9.3 3.7l9.5 17c7.7 13.8 19.2 21.6 31.5 21.6z"/><glyph glyph-name="grin-tongue-squint" unicode="" horiz-adv-x="496" d="M248 440C111 440 0 329 0 192S111-56 248-56 496 55 496 192 385 440 248 440zm64-400c0-35.6-29.1-64.5-64.9-64C212-23.5 184 5.8 184 41v42.8l17.7 8.8c15 7.5 31.5-1.7 34.9-16.5l2.8-12.1c2.1-9.2 15.2-9.2 17.3 0l2.8 12.1c3.4 14.8 19.8 24.1 34.9 16.5l17.7-8.8V40zm28.2-25.3c2.2 8.1 3.8 16.5 3.8 25.3v43.5c14.2 12.4 24.4 27.5 27.3 44.5 1.7 9.9-7.7 18.5-17.7 15.3-25.9-8.3-64.4-13.1-105.6-13.1s-79.6 4.8-105.6 13.1c-9.9 3.1-19.4-5.3-17.7-15.3 2.9-17 13.1-32.1 27.3-44.5V40c0-8.8 1.6-17.2 3.8-25.3C91.8 48.1 48 115 48 192c0 110.3 89.7 200 200 200s200-89.7 200-200c0-77-43.8-143.9-107.8-177.3zm36.9 281.1c-3.8 4.4-10.3 5.5-15.3 2.5l-80-48c-3.6-2.2-5.8-6.1-5.8-10.3s2.2-8.1 5.8-10.3l80-48c5.4-3.2 11.7-1.7 15.3 2.5 3.8 4.5 3.8 11 .1 15.5L343.6 240l33.6 40.3c3.8 4.5 3.7 11.1-.1 15.5zm-162.9-45.5l-80 48c-5 3-11.4 2-15.3-2.5-3.8-4.5-3.8-11-.1-15.5l33.6-40.3-33.6-40.3c-3.8-4.5-3.7-11 .1-15.5 3.6-4.2 9.9-5.7 15.3-2.5l80 48c3.6 2.2 5.8 6.1 5.8 10.3s-2.2 8.1-5.8 10.3z"/><glyph glyph-name="grin-tongue-wink" unicode="" horiz-adv-x="496" d="M152 268c-25.7 0-55.9-16.9-59.8-42.1-.8-5 1.7-10 6.1-12.4 4.4-2.4 9.9-1.8 13.7 1.6l9.5 8.5c14.8 13.2 46.2 13.2 61 0l9.5-8.5c2.5-2.2 8-4.7 13.7-1.6 4.4 2.4 6.9 7.4 6.1 12.4-3.9 25.2-34.1 42.1-59.8 42.1zm176 52c-44.2 0-80-35.8-80-80s35.8-80 80-80 80 35.8 80 80-35.8 80-80 80zm0-128c-26.5 0-48 21.5-48 48s21.5 48 48 48 48-21.5 48-48-21.5-48-48-48zm0 72c-13.3 0-24-10.7-24-24s10.7-24 24-24 24 10.7 24 24-10.7 24-24 24zm-80 176C111 440 0 329 0 192S111-56 248-56 496 55 496 192 385 440 248 440zm64-400c0-35.6-29.1-64.5-64.9-64C212-23.5 184 5.8 184 41v42.8l17.7 8.8c15 7.5 31.5-1.7 34.9-16.5l2.8-12.1c2.1-9.2 15.2-9.2 17.3 0l2.8 12.1c3.4 14.8 19.8 24.1 34.9 16.5l17.7-8.8V40zm28.2-25.3c2.2 8.1 3.8 16.5 3.8 25.3v43.5c14.2 12.4 24.4 27.5 27.3 44.5 1.7 9.9-7.7 18.5-17.7 15.3-25.9-8.3-64.4-13.1-105.6-13.1s-79.6 4.8-105.6 13.1c-9.9 3.1-19.4-5.3-17.7-15.3 2.9-17 13.1-32.1 27.3-44.5V40c0-8.8 1.6-17.2 3.8-25.3C91.8 48.1 48 115 48 192c0 110.3 89.7 200 200 200s200-89.7 200-200c0-77-43.8-143.9-107.8-177.3z"/><glyph glyph-name="grin-tongue" unicode="" horiz-adv-x="496" d="M248 440C111 440 0 329 0 192S111-56 248-56 496 55 496 192 385 440 248 440zm64-400c0-35.6-29.1-64.5-64.9-64C212-23.5 184 5.8 184 41v42.8l17.7 8.8c15 7.5 31.5-1.7 34.9-16.5l2.8-12.1c2.1-9.2 15.2-9.2 17.3 0l2.8 12.1c3.4 14.8 19.8 24.1 34.9 16.5l17.7-8.8V40zm28.2-25.3c2.2 8.1 3.8 16.5 3.8 25.3v43.5c14.2 12.4 24.4 27.5 27.3 44.5 1.7 9.9-7.7 18.5-17.7 15.3-25.9-8.3-64.4-13.1-105.6-13.1s-79.6 4.8-105.6 13.1c-9.9 3.1-19.4-5.3-17.7-15.3 2.9-17 13.1-32.1 27.3-44.5V40c0-8.8 1.6-17.2 3.8-25.3C91.8 48.1 48 115 48 192c0 110.3 89.7 200 200 200s200-89.7 200-200c0-77-43.8-143.9-107.8-177.3zM168 272c-17.7 0-32-14.3-32-32s14.3-32 32-32 32 14.3 32 32-14.3 32-32 32zm160 0c-17.7 0-32-14.3-32-32s14.3-32 32-32 32 14.3 32 32-14.3 32-32 32z"/><glyph glyph-name="grin-wink" unicode="" horiz-adv-x="496" d="M328 268c-25.69 0-55.88-16.92-59.86-42.12-1.75-11.22 11.5-18.24 19.83-10.84l9.55 8.48c14.81 13.19 46.16 13.19 60.97 0l9.55-8.48c8.48-7.43 21.56-.25 19.83 10.84C383.88 251.08 353.69 268 328 268zm-160-60c17.67 0 32 14.33 32 32s-14.33 32-32 32-32-14.33-32-32 14.33-32 32-32zm185.55-64.64c-25.93-8.3-64.4-13.06-105.55-13.06s-79.62 4.75-105.55 13.06c-9.94 3.13-19.4-5.37-17.71-15.34C132.67 80.87 196.06 48 248 48s115.33 32.87 123.26 80.02c1.68 9.89-7.67 18.48-17.71 15.34zM248 440C111.03 440 0 328.97 0 192S111.03-56 248-56 496 55.03 496 192 384.97 440 248 440zm0-448C137.72-8 48 81.72 48 192s89.72 200 200 200 200-89.72 200-200S358.28-8 248-8z"/><glyph glyph-name="grin" unicode="" horiz-adv-x="496" d="M248 440C111 440 0 329 0 192S111-56 248-56 496 55 496 192 385 440 248 440zm0-448C137.7-8 48 81.7 48 192s89.7 200 200 200 200-89.7 200-200S358.3-8 248-8zm105.6 151.4c-25.9-8.3-64.4-13.1-105.6-13.1s-79.6 4.8-105.6 13.1c-9.9 3.1-19.4-5.4-17.7-15.3 7.9-47.1 71.3-80 123.3-80s115.3 32.9 123.3 80c1.6 9.8-7.7 18.4-17.7 15.3zM168 208c17.7 0 32 14.3 32 32s-14.3 32-32 32-32-14.3-32-32 14.3-32 32-32zm160 0c17.7 0 32 14.3 32 32s-14.3 32-32 32-32-14.3-32-32 14.3-32 32-32z"/><glyph glyph-name="hand-lizard" unicode="" horiz-adv-x="576" d="M556.686 157.458L410.328 383.171C397.001 403.728 374.417 416 349.917 416H56c-30.879 0-56-25.122-56-56v-8c0-44.112 35.888-80 80-80h196.042l-18.333-48H144c-48.523 0-88-39.477-88-88 0-30.879 25.121-56 56-56h131.552a23.91 23.91 0 0 0 8.697-1.631L352 39.582V-32h224V92.171c0 23.225-6.679 45.801-19.314 65.287zM528 16H400v23.582c0 19.948-12.014 37.508-30.604 44.736l-99.751 38.788A71.733 71.733 0 0 1 243.552 128H112c-4.411 0-8 3.589-8 8 0 22.056 17.944 40 40 40h113.709c19.767 0 37.786 12.407 44.84 30.873l24.552 64.281c8.996 23.553-8.428 48.846-33.63 48.846H80c-17.645 0-32 14.355-32 32v8c0 4.411 3.589 8 8 8h293.917c8.166 0 15.693-4.09 20.137-10.942l146.358-225.715A71.84 71.84 0 0 0 528 92.171V16z"/><glyph glyph-name="hand-paper" unicode="" horiz-adv-x="448" d="M372.57 335.359v10.825c0 43.612-40.52 76.691-83.039 65.546-25.629 49.5-94.09 47.45-117.982-.747-41.28 10.561-82.405-20.928-82.405-64.983V219.87c-19.953 7.427-43.308 5.068-62.083-8.871-29.355-21.796-35.794-63.333-14.55-93.153L132.48-50.569a32 32 0 0 1 26.062-13.432h222.897c14.904 0 27.835 10.289 31.182 24.813L442.805 91.77A203.637 203.637 0 0 1 448 137.436V269c0 40.62-35.523 71.992-75.43 66.359zm27.427-197.922c0-11.731-1.334-23.469-3.965-34.886L368.707-16h-201.92L51.591 145.697c-14.439 20.27 15.023 42.776 29.394 22.605l27.128-38.079c8.995-12.626 29.031-6.287 29.031 9.283V346c0 25.645 36.571 24.81 36.571-.691V192c0-8.837 7.163-16 16-16h6.856c8.837 0 16 7.163 16 16v189c0 25.663 36.571 24.81 36.571-.691V192c0-8.837 7.163-16 16-16h6.856c8.837 0 16 7.163 16 16v154.875c0 25.672 36.57 24.81 36.57-.691V192c0-8.837 7.163-16 16-16h6.857c8.837 0 16 7.163 16 16v76.309c0 26.242 36.57 25.64 36.57.691V137.437z"/><glyph glyph-name="hand-peace" unicode="" horiz-adv-x="448" d="M362.146 256.024c-13.71 21.649-38.761 34.016-65.006 30.341V374c0 40.804-32.811 74-73.141 74-40.33 0-73.14-33.196-73.14-74L160 280l-18.679 78.85c-14.743 38.307-57.471 57.04-95.112 41.942-37.474-15.03-55.78-57.755-41.201-95.642l55.757-144.927c-30.557-24.956-43.994-57.809-24.733-92.218l54.853-97.999C102.625-50.97 124.73-64 148.575-64h205.702c30.744 0 57.558 21.44 64.555 51.797l27.427 118.999a67.801 67.801 0 0 1 1.729 15.203L448 192c0 44.956-43.263 77.343-85.854 64.024zM399.987 122c0-1.488-.169-2.977-.502-4.423L372.058-1.424C370.08-10.006 362.768-16 354.276-16H148.575c-6.486 0-12.542 3.621-15.805 9.449l-54.854 98c-4.557 8.141-2.619 18.668 4.508 24.488l26.647 21.764a16 16 0 0 1 4.812 18.139l-64.09 166.549c-12.567 32.655 34.577 50.774 46.717 19.222l59.784-155.357A16 16 0 0 1 171.227 176h11.632c8.837 0 16 7.163 16 16v182c0 34.375 50.281 34.43 50.281 0V192c0-8.837 7.163-16 16-16h6.856c8.837 0 16 7.163 16 16v28c0 25.122 36.567 25.159 36.567 0v-28c0-8.837 7.163-16 16-16h6.856c8.837 0 16 7.163 16 16 0 25.12 36.567 25.16 36.567 0v-70z"/><glyph glyph-name="hand-point-down" unicode="" horiz-adv-x="448" d="M188.8-64c45.616 0 83.2 37.765 83.2 83.2v35.647a93.148 93.148 0 0 1 22.064 7.929c22.006-2.507 44.978 3.503 62.791 15.985C409.342 79.9 448 116.159 448 178.701V200c0 60.063-40 98.512-40 127.2v2.679c4.952 5.747 8 13.536 8 22.12V416c0 17.673-12.894 32-28.8 32H156.8c-15.906 0-28.8-14.327-28.8-32v-64c0-8.584 3.048-16.373 8-22.12v-2.679c0-6.964-6.193-14.862-23.668-30.183l-.148-.129-.146-.131c-9.937-8.856-20.841-18.116-33.253-25.851C48.537 252.202 0 240.514 0 195.2c0-56.928 35.286-92 83.2-92 8.026 0 15.489.814 22.4 2.176V19.2c0-45.099 38.101-83.2 83.2-83.2zm0 48c-18.7 0-35.2 16.775-35.2 35.2v158.4c-17.325 0-35.2-26.4-70.4-26.4-26.4 0-35.2 20.625-35.2 44 0 8.794 32.712 20.445 56.1 34.926 14.575 9.074 27.225 19.524 39.875 30.799 18.374 16.109 36.633 33.836 39.596 59.075h176.752C364.087 277.21 400 245.491 400 200v-21.299c0-40.524-22.197-57.124-61.325-50.601-8.001-14.612-33.979-24.151-53.625-12.925-18.225-19.365-46.381-17.787-61.05-4.95V19.2C224 .225 207.775-16 188.8-16zM328 384c0 13.255 10.745 24 24 24s24-10.745 24-24-10.745-24-24-24-24 10.745-24 24z"/><glyph glyph-name="hand-point-left" unicode="" horiz-adv-x="512" d="M0 227.2C0 181.584 37.765 144 83.2 144h35.647a93.148 93.148 0 0 1 7.929-22.064c-2.507-22.006 3.503-44.978 15.985-62.791C143.9 6.658 180.159-32 242.701-32H264c60.063 0 98.512 40 127.2 40h2.679c5.747-4.952 13.536-8 22.12-8h64c17.673 0 32 12.894 32 28.8v230.4c0 15.906-14.327 28.8-32 28.8h-64c-8.584 0-16.373-3.048-22.12-8H391.2c-6.964 0-14.862 6.193-30.183 23.668l-.129.148-.131.146c-8.856 9.937-18.116 20.841-25.851 33.253C316.202 367.463 304.514 416 259.2 416c-56.928 0-92-35.286-92-83.2 0-8.026.814-15.489 2.176-22.4H83.2C38.101 310.4 0 272.299 0 227.2zm48 0c0 18.7 16.775 35.2 35.2 35.2h158.4c0 17.325-26.4 35.2-26.4 70.4 0 26.4 20.625 35.2 44 35.2 8.794 0 20.445-32.712 34.926-56.1 9.074-14.575 19.524-27.225 30.799-39.875 16.109-18.374 33.836-36.633 59.075-39.596V55.677C341.21 51.913 309.491 16 264 16h-21.299c-40.524 0-57.124 22.197-50.601 61.325-14.612 8.001-24.151 33.979-12.925 53.625-19.365 18.225-17.787 46.381-4.95 61.05H83.2C64.225 192 48 208.225 48 227.2zM448 88c13.255 0 24-10.745 24-24s-10.745-24-24-24-24 10.745-24 24 10.745 24 24 24z"/><glyph glyph-name="hand-point-right" unicode="" horiz-adv-x="512" d="M428.8 310.4h-86.177a115.52 115.52 0 0 1 2.176 22.4c0 47.914-35.072 83.2-92 83.2-45.314 0-57.002-48.537-75.707-78.784-7.735-12.413-16.994-23.317-25.851-33.253l-.131-.146-.129-.148C135.662 286.193 127.764 280 120.8 280h-2.679c-5.747 4.952-13.536 8-22.12 8H32c-17.673 0-32-12.894-32-28.8V28.8C0 12.894 14.327 0 32 0h64c8.584 0 16.373 3.048 22.12 8h2.679c28.688 0 67.137-40 127.2-40h21.299c62.542 0 98.8 38.658 99.94 91.145 12.482 17.813 18.491 40.785 15.985 62.791A93.148 93.148 0 0 1 393.152 144H428.8c45.435 0 83.2 37.584 83.2 83.2 0 45.099-38.101 83.2-83.2 83.2zm0-118.4h-91.026c12.837-14.669 14.415-42.825-4.95-61.05 11.227-19.646 1.687-45.624-12.925-53.625C326.423 38.197 309.823 16 269.299 16H248c-45.491 0-77.21 35.913-120 39.676v176.753c25.239 2.964 42.966 21.222 59.075 39.596 11.275 12.65 21.725 25.3 30.799 39.875 14.481 23.388 26.132 56.1 34.926 56.1 23.375 0 44-8.8 44-35.2 0-35.2-26.4-53.075-26.4-70.4h158.4c18.425 0 35.2-16.5 35.2-35.2 0-18.975-16.225-35.2-35.2-35.2zM88 64c0-13.255-10.745-24-24-24S40 50.745 40 64s10.745 24 24 24 24-10.745 24-24z"/><glyph glyph-name="hand-point-up" unicode="" horiz-adv-x="448" d="M105.6 364.8v-86.177a115.52 115.52 0 0 1-22.4 2.176c-47.914 0-83.2-35.072-83.2-92 0-45.314 48.537-57.002 78.784-75.707 12.413-7.735 23.317-16.994 33.253-25.851l.146-.131.148-.129C129.807 71.662 136 63.764 136 56.8v-2.679c-4.952-5.747-8-13.536-8-22.12v-64c0-17.673 12.894-32 28.8-32h230.4c15.906 0 28.8 14.327 28.8 32v64c0 8.584-3.048 16.373-8 22.12V56.8c0 28.688 40 67.137 40 127.2v21.299c0 62.542-38.658 98.8-91.145 99.94-17.813 12.482-40.785 18.491-62.791 15.985A93.148 93.148 0 0 1 272 329.153V364.8c0 45.435-37.584 83.2-83.2 83.2-45.099 0-83.2-38.101-83.2-83.2zm118.4 0v-91.026c14.669 12.837 42.825 14.415 61.05-4.95 19.646 11.227 45.624 1.687 53.625-12.925 39.128 6.524 61.325-10.076 61.325-50.6V184c0-45.491-35.913-77.21-39.676-120H183.571c-2.964 25.239-21.222 42.966-39.596 59.075-12.65 11.275-25.3 21.725-39.875 30.799C80.712 168.355 48 180.006 48 188.8c0 23.375 8.8 44 35.2 44 35.2 0 53.075-26.4 70.4-26.4v158.4c0 18.425 16.5 35.2 35.2 35.2 18.975 0 35.2-16.225 35.2-35.2zM352 24c13.255 0 24-10.745 24-24s-10.745-24-24-24-24 10.745-24 24 10.745 24 24 24z"/><glyph glyph-name="hand-pointer" unicode="" horiz-adv-x="448" d="M358.182 268.639c-19.493 24.768-52.679 31.945-79.872 19.098-15.127 15.687-36.182 22.487-56.595 19.629V381c0 36.944-29.736 67-66.286 67s-66.286-30.056-66.286-67V219.871c-19.909 7.41-43.272 5.094-62.083-8.872-29.355-21.795-35.793-63.333-14.55-93.152L122.209-36.154C134.632-53.59 154.741-64 176-64h178.286c30.802 0 57.574 21.5 64.557 51.797l27.429 118.999A67.873 67.873 0 0 1 448 122v84c0 46.844-46.625 79.273-89.818 62.639zM80.985 168.303l27.126-38.079c8.995-12.626 29.031-6.287 29.031 9.283V381c0 25.12 36.571 25.16 36.571 0V206c0-8.836 7.163-16 16-16h6.857c8.837 0 16 7.164 16 16v35c0 25.12 36.571 25.16 36.571 0v-35c0-8.836 7.163-16 16-16H272c8.837 0 16 7.164 16 16v21c0 25.12 36.571 25.16 36.571 0v-21c0-8.836 7.163-16 16-16h6.857c8.837 0 16 7.164 16 16 0 25.121 36.571 25.16 36.571 0v-84c0-1.488-.169-2.977-.502-4.423L372.067-1.424C370.089-10.006 362.777-16 354.285-16H176c-5.769 0-11.263 2.878-14.697 7.697l-109.712 154c-14.406 20.223 14.994 42.818 29.394 22.606zM176.143 48v96c0 8.837 6.268 16 14 16h6c7.732 0 14-7.163 14-16V48c0-8.837-6.268-16-14-16h-6c-7.733 0-14 7.163-14 16zm75.428 0v96c0 8.837 6.268 16 14 16h6c7.732 0 14-7.163 14-16V48c0-8.837-6.268-16-14-16h-6c-7.732 0-14 7.163-14 16zM327 48v96c0 8.837 6.268 16 14 16h6c7.732 0 14-7.163 14-16V48c0-8.837-6.268-16-14-16h-6c-7.732 0-14 7.163-14 16z"/><glyph glyph-name="hand-rock" unicode="" horiz-adv-x="512" d="M408.864 368.948c-22.401 33.898-66.108 42.273-98.813 23.588-29.474 31.469-79.145 31.093-108.334.022-47.16 27.02-108.71-5.055-110.671-60.806C44.846 342.593 0 307.999 0 260.571v-56.953c0-32.741 14.28-63.954 39.18-85.634l97.71-85.081C141.142 29.201 140 27.33 140 0c0-17.673 14.327-32 32-32h252c17.673 0 32 14.327 32 32 0 23.513-1.015 30.745 3.982 42.37l42.835 99.656c6.094 14.177 9.183 29.172 9.183 44.568v114.443c0 52.839-54.314 88.662-103.136 67.911zM464 186.594a64.505 64.505 0 0 0-5.282-25.613l-42.835-99.655c-5.23-12.171-7.883-25.04-7.883-38.25V16H188v10.286c0 16.37-7.14 31.977-19.59 42.817l-97.71 85.08C56.274 166.745 48 184.764 48 203.619v56.953c0 33.208 52 33.537 52-.677v-41.228a16 16 0 0 1 5.493-12.067l7-6.095A16 16 0 0 1 139 212.571v116.572c0 33.097 52 33.725 52-.677v-26.751c0-8.836 7.164-16 16-16h7c8.836 0 16 7.164 16 16v41.143c0 33.134 52 33.675 52-.677v-40.466c0-8.836 7.163-16 16-16h7c8.837 0 16 7.164 16 16v27.429c0 33.03 52 33.78 52-.677v-26.751c0-8.836 7.163-16 16-16h7c8.837 0 16 7.164 16 16 0 33.146 52 33.613 52-.677V186.594z"/><glyph glyph-name="hand-scissors" unicode="" horiz-adv-x="512" d="M256-32l70 .013c5.114 0 10.231.583 15.203 1.729L460.202-2.831C490.56 4.165 512 30.98 512 61.723v205.702c0 23.845-13.03 45.951-34.005 57.69l-97.999 54.853c-34.409 19.261-67.263 5.824-92.218-24.733L142.85 410.992c-37.887 14.579-80.612-3.727-95.642-41.201-15.098-37.642 3.635-80.37 41.942-95.112L168 256l-94 9.141c-40.804 0-74-32.811-74-73.14 0-40.33 33.196-73.141 74-73.141h87.635c-3.675-26.245 8.692-51.297 30.341-65.006C178.657 11.263 211.044-32 256-32zm0 48.013c-25.16 0-25.12 36.567 0 36.567 8.837 0 16 7.163 16 16v6.856c0 8.837-7.163 16-16 16h-28c-25.159 0-25.122 36.567 0 36.567h28c8.837 0 16 7.163 16 16v6.856c0 8.837-7.163 16-16 16H74c-34.43 0-34.375 50.281 0 50.281h182c8.837 0 16 7.163 16 16v11.632a16 16 0 0 1-10.254 14.933L106.389 319.49c-31.552 12.14-13.432 59.283 19.222 46.717l166.549-64.091a16.001 16.001 0 0 1 18.139 4.812l21.764 26.647c5.82 7.127 16.348 9.064 24.488 4.508l98-54.854c5.828-3.263 9.449-9.318 9.449-15.805V61.723c0-8.491-5.994-15.804-14.576-17.782L330.423 16.514a19.743 19.743 0 0 0-4.423-.502h-70z"/><glyph glyph-name="hand-spock" unicode="" horiz-adv-x="512" d="M21.096 66.21L150.188-55.303a32 32 0 0 1 21.932-8.698h237.6c14.17 0 26.653 9.319 30.68 22.904l31.815 107.313A115.955 115.955 0 0 1 477 99.189v36.839c0 4.051.476 8.104 1.414 12.045l31.73 133.41c10.099 42.412-22.316 82.738-65.544 82.525-4.144 24.856-22.543 47.165-49.85 53.992-35.803 8.952-72.227-12.655-81.25-48.75L296.599 264l-21.675 131.99c-8.286 36.07-44.303 58.572-80.304 50.296-29.616-6.804-50.138-32.389-51.882-61.295-42.637-.831-73.455-40.563-64.071-81.844l31.04-136.508c-27.194 22.515-67.284 19.992-91.482-5.722-25.376-26.961-24.098-69.325 2.871-94.707zm32.068 61.811l.002.001c7.219 7.672 19.241 7.98 26.856.813l53.012-49.894C143.225 69.351 160 76.6 160 90.594v69.479c0 1.193-.134 2.383-.397 3.546l-34.13 150.172c-5.596 24.617 31.502 32.86 37.054 8.421l30.399-133.757a16 16 0 0 1 15.603-12.454h8.604c10.276 0 17.894 9.567 15.594 19.583l-41.62 181.153c-5.623 24.469 31.39 33.076 37.035 8.508l45.22-196.828A16 16 0 0 1 288.956 176h13.217a16 16 0 0 1 15.522 12.119l42.372 169.49c6.104 24.422 42.962 15.159 36.865-9.217L358.805 195.88c-2.521-10.088 5.115-19.88 15.522-19.88h9.694a16 16 0 0 1 15.565 12.295L426.509 301.4c5.821 24.448 42.797 15.687 36.966-8.802L431.72 159.19a100.094 100.094 0 0 1-2.72-23.162V99.189c0-6.548-.943-13.051-2.805-19.328L397.775-16h-219.31L53.978 101.164c-7.629 7.18-7.994 19.229-.814 26.857z"/><glyph glyph-name="handshake" unicode="" horiz-adv-x="640" d="M519.2 320.1l-47.6 47.6A56.252 56.252 0 0 1 432 384H205.2c-14.8 0-29.1-5.9-39.6-16.3L118 320.1H0V64.4h64c17.6 0 31.8 14.2 31.9 31.7h9.1l84.6-76.4C220.5-5.4 263.4-6 295.2 15.9 307.7 5.1 321.2 0 336.3 0c18.2 0 35.3 7.4 48.8 24 22.1-8.7 48.2-2.6 64 16.8l26.2 32.3c5.6 6.9 9.1 14.8 10.9 23h57.9c.1-17.5 14.4-31.7 31.9-31.7h64v255.7H519.2zM48 96.4c-8.8 0-16 7.2-16 16s7.2 16 16 16 16-7.2 16-16c0-8.9-7.2-16-16-16zm390 6.9l-26.1-32.2c-2.8-3.4-7.8-4-11.3-1.2l-23.9 19.4-30-36.5c-6-7.3-15-4.8-18-2.4l-36.8 31.5-15.6-19.2C262.4 45.6 237.1 43 221 56.1l-97.3 88H96v128.1h41.9l61.7 61.6c2 .8 3.7 1.5 5.7 2.3H262l-38.7-35.5c-29.4-26.9-31.1-72.3-4.4-101.3 14.8-16.2 61.2-41.2 101.5-4.4l8.2 7.5 108.2-87.8c3.4-2.8 3.9-7.9 1.2-11.3zm106 40.8h-69.2c-2.3 2.8-4.9 5.4-7.7 7.7l-102.7 83.4 12.5 11.4c6.5 6 7 16.1 1 22.6L367 280.9c-6 6.5-16.1 6.9-22.6 1l-55.2-50.6c-9.5-8.7-25.7-9.4-34.6 0-9.3 9.9-8.5 25.1 1.2 33.9l65.6 60.1c7.4 6.8 17 10.5 27 10.5l83.7.2c2.1 0 4.1-.8 5.5-2.3l61.7-61.6H544v-128zm48-47.7c-8.8 0-16 7.2-16 16s7.2 16 16 16 16-7.2 16-16c0-8.9-7.2-16-16-16z"/><glyph glyph-name="hdd" unicode="" horiz-adv-x="576" d="M567.403 212.358l-105.08 151.053A48 48 0 0 1 422.919 384H153.081a48 48 0 0 1-39.404-20.589L8.597 212.358A48.001 48.001 0 0 1 0 184.946V48C0 21.49 21.49 0 48 0h480c26.51 0 48 21.49 48 48v136.946c0 9.801-3 19.366-8.597 27.412zM153.081 336h269.838l77.913-112H75.168l77.913 112zM528 48H48v128h480V48zm-32 64c0-17.673-14.327-32-32-32s-32 14.327-32 32 14.327 32 32 32 32-14.327 32-32zm-96 0c0-17.673-14.327-32-32-32s-32 14.327-32 32 14.327 32 32 32 32-14.327 32-32z"/><glyph glyph-name="heart" unicode="" horiz-adv-x="512" d="M458.4 383.7c-57.8 48.6-147.1 41.3-202.4-15-55.3 56.3-144.6 63.7-202.4 15-75.2-63.3-64.2-166.5-10.6-221.2L218.4-16.2c10-10.2 23.4-15.9 37.6-15.9 14.3 0 27.6 5.6 37.6 15.8L469 162.4c53.5 54.7 64.7 157.9-10.6 221.3zm-23.6-187.5L259.4 17.5c-2.4-2.4-4.4-2.4-6.8 0L77.2 196.2c-36.5 37.2-43.9 107.6 7.3 150.7 38.9 32.7 98.9 27.8 136.5-10.5l35-35.7 35 35.7c37.8 38.5 97.8 43.2 136.5 10.6 51.1-43.1 43.5-113.9 7.3-150.8z"/><glyph glyph-name="hospital" unicode="" horiz-adv-x="448" d="M128 204v40c0 6.627 5.373 12 12 12h40c6.627 0 12-5.373 12-12v-40c0-6.627-5.373-12-12-12h-40c-6.627 0-12 5.373-12 12zm140-12h40c6.627 0 12 5.373 12 12v40c0 6.627-5.373 12-12 12h-40c-6.627 0-12-5.373-12-12v-40c0-6.627 5.373-12 12-12zm-76-84v40c0 6.627-5.373 12-12 12h-40c-6.627 0-12-5.373-12-12v-40c0-6.627 5.373-12 12-12h40c6.627 0 12 5.373 12 12zm76-12h40c6.627 0 12 5.373 12 12v40c0 6.627-5.373 12-12 12h-40c-6.627 0-12-5.373-12-12v-40c0-6.627 5.373-12 12-12zM448-28v-36H0v36c0 6.627 5.373 12 12 12h19.5v378.965c0 11.617 10.745 21.035 24 21.035H144v40c0 13.255 10.745 24 24 24h112c13.255 0 24-10.745 24-24v-40h88.5c13.255 0 24-9.418 24-21.035V-16H436c6.627 0 12-5.373 12-12zM79.5-15H192v67c0 6.627 5.373 12 12 12h40c6.627 0 12-5.373 12-12v-67h112.5v351H304v-24c0-13.255-10.745-24-24-24H168c-13.255 0-24 10.745-24 24v24H79.5V-15zM266 384h-26v26a6 6 0 0 1-6 6h-20a6 6 0 0 1-6-6v-26h-26a6 6 0 0 1-6-6v-20a6 6 0 0 1 6-6h26v-26a6 6 0 0 1 6-6h20a6 6 0 0 1 6 6v26h26a6 6 0 0 1 6 6v20a6 6 0 0 1-6 6z"/><glyph glyph-name="hourglass" unicode="" horiz-adv-x="384" d="M368 400h4c6.627 0 12 5.373 12 12v24c0 6.627-5.373 12-12 12H12c-6.627 0-12-5.373-12-12v-24c0-6.627 5.373-12 12-12h4c0-80.564 32.188-165.807 97.18-208C47.899 149.619 16 64.1 16-16h-4C5.373-16 0-21.373 0-28v-24c0-6.627 5.373-12 12-12h360c6.627 0 12 5.373 12 12v24c0 6.627-5.373 12-12 12h-4c0 80.564-32.188 165.807-97.18 208C336.102 234.381 368 319.9 368 400zm-304 0h256c0-101.62-57.307-184-128-184S64 298.379 64 400zM320-16H64c0 101.62 57.308 184 128 184S320 85.62 320-16z"/><glyph glyph-name="id-badge" unicode="" horiz-adv-x="384" d="M336 448H48c-26.5 0-48-21.5-48-48V-16c0-26.5 21.5-48 48-48h288c26.5 0 48 21.5 48 48v416c0 26.5-21.5 48-48 48zm0-464H48v416h288V-16zM144 336h96c8.8 0 16 7.2 16 16s-7.2 16-16 16h-96c-8.8 0-16-7.2-16-16s7.2-16 16-16zm48-176c35.3 0 64 28.7 64 64s-28.7 64-64 64-64-28.7-64-64 28.7-64 64-64zM102.4 32h179.2C294 32 304 40.6 304 51.2v19.2c0 31.8-30.1 57.6-67.2 57.6-10.8 0-18.7-8-44.8-8-26.9 0-33.4 8-44.8 8-37.1 0-67.2-25.8-67.2-57.6V51.2C80 40.6 90 32 102.4 32z"/><glyph glyph-name="id-card" unicode="" horiz-adv-x="576" d="M528 416H48c-26.5 0-48-21.5-48-48V16c0-26.5 21.5-48 48-48h480c26.5 0 48 21.5 48 48v352c0 26.5-21.5 48-48 48zm0-400H303.2c.9 4.5.8-3.6.8 22.4 0 31.8-30.1 57.6-67.2 57.6-10.8 0-18.7-8-44.8-8-26.9 0-33.4 8-44.8 8C110.1 96 80 70.2 80 38.4c0-26-.2-17.9.8-22.4H48v288h480V16zM360 96h112c4.4 0 8 3.6 8 8v16c0 4.4-3.6 8-8 8H360c-4.4 0-8-3.6-8-8v-16c0-4.4 3.6-8 8-8zm0 64h112c4.4 0 8 3.6 8 8v16c0 4.4-3.6 8-8 8H360c-4.4 0-8-3.6-8-8v-16c0-4.4 3.6-8 8-8zm0 64h112c4.4 0 8 3.6 8 8v16c0 4.4-3.6 8-8 8H360c-4.4 0-8-3.6-8-8v-16c0-4.4 3.6-8 8-8zm-168-96c35.3 0 64 28.7 64 64s-28.7 64-64 64-64-28.7-64-64 28.7-64 64-64z"/><glyph glyph-name="image" unicode="" horiz-adv-x="512" d="M464 384H48c-26.51 0-48-21.49-48-48V48C0 21.49 21.49 0 48 0h416c26.51 0 48 21.49 48 48v288c0 26.51-21.49 48-48 48zm-6-336H54a6 6 0 0 0-6 6v276a6 6 0 0 0 6 6h404a6 6 0 0 0 6-6V54a6 6 0 0 0-6-6zM128 296c-22.091 0-40-17.909-40-40s17.909-40 40-40 40 17.909 40 40-17.909 40-40 40zM96 96h320v80l-87.515 87.515c-4.686 4.686-12.284 4.686-16.971 0L192 144l-39.515 39.515c-4.686 4.686-12.284 4.686-16.971 0L96 144V96z"/><glyph glyph-name="images" unicode="" horiz-adv-x="576" d="M480 32V16c0-26.51-21.49-48-48-48H48C21.49-32 0-10.51 0 16v256c0 26.51 21.49 48 48 48h16v-48H54a6 6 0 0 1-6-6V22a6 6 0 0 1 6-6h372a6 6 0 0 1 6 6v10h48zm42 336H150a6 6 0 0 1-6-6V118a6 6 0 0 1 6-6h372a6 6 0 0 1 6 6v244a6 6 0 0 1-6 6zm6 48c26.51 0 48-21.49 48-48V112c0-26.51-21.49-48-48-48H144c-26.51 0-48 21.49-48 48v256c0 26.51 21.49 48 48 48h384zM264 304c0-22.091-17.909-40-40-40s-40 17.909-40 40 17.909 40 40 40 40-17.909 40-40zm-72-96l39.515 39.515c4.686 4.686 12.284 4.686 16.971 0L288 208l103.515 103.515c4.686 4.686 12.284 4.686 16.971 0L480 240v-80H192v48z"/><glyph glyph-name="keyboard" unicode="" horiz-adv-x="576" d="M528 384H48c-26.51 0-48-21.49-48-48V48C0 21.49 21.49 0 48 0h480c26.51 0 48 21.49 48 48v288c0 26.51-21.49 48-48 48zm8-336c0-4.411-3.589-8-8-8H48c-4.411 0-8 3.589-8 8v288c0 4.411 3.589 8 8 8h480c4.411 0 8-3.589 8-8V48zM170 178v28c0 6.627-5.373 12-12 12h-28c-6.627 0-12-5.373-12-12v-28c0-6.627 5.373-12 12-12h28c6.627 0 12 5.373 12 12zm96 0v28c0 6.627-5.373 12-12 12h-28c-6.627 0-12-5.373-12-12v-28c0-6.627 5.373-12 12-12h28c6.627 0 12 5.373 12 12zm96 0v28c0 6.627-5.373 12-12 12h-28c-6.627 0-12-5.373-12-12v-28c0-6.627 5.373-12 12-12h28c6.627 0 12 5.373 12 12zm96 0v28c0 6.627-5.373 12-12 12h-28c-6.627 0-12-5.373-12-12v-28c0-6.627 5.373-12 12-12h28c6.627 0 12 5.373 12 12zM122 96v28c0 6.627-5.373 12-12 12H82c-6.627 0-12-5.373-12-12V96c0-6.627 5.373-12 12-12h28c6.627 0 12 5.373 12 12zm384 0v28c0 6.627-5.373 12-12 12h-28c-6.627 0-12-5.373-12-12V96c0-6.627 5.373-12 12-12h28c6.627 0 12 5.373 12 12zM122 260v28c0 6.627-5.373 12-12 12H82c-6.627 0-12-5.373-12-12v-28c0-6.627 5.373-12 12-12h28c6.627 0 12 5.373 12 12zm96 0v28c0 6.627-5.373 12-12 12h-28c-6.627 0-12-5.373-12-12v-28c0-6.627 5.373-12 12-12h28c6.627 0 12 5.373 12 12zm96 0v28c0 6.627-5.373 12-12 12h-28c-6.627 0-12-5.373-12-12v-28c0-6.627 5.373-12 12-12h28c6.627 0 12 5.373 12 12zm96 0v28c0 6.627-5.373 12-12 12h-28c-6.627 0-12-5.373-12-12v-28c0-6.627 5.373-12 12-12h28c6.627 0 12 5.373 12 12zm96 0v28c0 6.627-5.373 12-12 12h-28c-6.627 0-12-5.373-12-12v-28c0-6.627 5.373-12 12-12h28c6.627 0 12 5.373 12 12zm-98-158v16c0 6.627-5.373 12-12 12H180c-6.627 0-12-5.373-12-12v-16c0-6.627 5.373-12 12-12h216c6.627 0 12 5.373 12 12z"/><glyph glyph-name="kiss-beam" unicode="" horiz-adv-x="496" d="M168 296c-23.8 0-52.7-29.3-56-71.4-.3-3.7 2-7.2 5.6-8.3 3.5-1 7.5.5 9.3 3.7l9.5 17c7.7 13.7 19.2 21.6 31.5 21.6s23.8-7.9 31.5-21.6l9.5-17c2.1-3.7 6.2-4.7 9.3-3.7 3.6 1.1 5.9 4.5 5.6 8.3-3.1 42.1-32 71.4-55.8 71.4zm80 144C111 440 0 329 0 192S111-56 248-56 496 55 496 192 385 440 248 440zm0-448C137.7-8 48 81.7 48 192s89.7 200 200 200 200-89.7 200-200S358.3-8 248-8zm56 148c0 19.2-28.8 41.5-71.5 44-3.8.4-7.4-2.4-8.2-6.2-.9-3.8 1.1-7.7 4.7-9.2l16.9-7.2c13-5.5 20.8-13.5 20.8-21.5s-7.8-16-20.7-21.5l-17-7.2c-5.7-2.4-6-12.2 0-14.8l16.9-7.2c13-5.5 20.8-13.5 20.8-21.5s-7.8-16-20.7-21.5L229 39c-3.6-1.5-5.6-5.4-4.7-9.2.8-3.6 4.1-6.2 7.8-6.2h.5c42.8 2.5 71.5 24.8 71.5 44 0 13-13.4 27.3-35.2 36C290.6 112.7 304 127 304 140zm24 156c-23.8 0-52.7-29.3-56-71.4-.3-3.7 2-7.2 5.6-8.3 3.5-1 7.5.5 9.3 3.7l9.5 17c7.7 13.7 19.2 21.6 31.5 21.6s23.8-7.9 31.5-21.6l9.5-17c2.1-3.7 6.2-4.7 9.3-3.7 3.6 1.1 5.9 4.5 5.6 8.3-3.1 42.1-32 71.4-55.8 71.4z"/><glyph glyph-name="kiss-wink-heart" unicode="" horiz-adv-x="504" d="M304 139.5c0 19.2-28.8 41.5-71.5 44-3.8.4-7.4-2.4-8.2-6.2-.9-3.8 1.1-7.7 4.7-9.2l16.9-7.2c13-5.5 20.8-13.5 20.8-21.5s-7.8-16-20.7-21.5l-17-7.2c-5.7-2.4-6-12.2 0-14.8l16.9-7.2c13-5.5 20.8-13.5 20.8-21.5s-7.8-16-20.7-21.5l-17-7.2c-3.6-1.5-5.6-5.4-4.7-9.2.8-3.6 4.1-6.2 7.8-6.2h.5c42.8 2.5 71.5 24.8 71.5 44 0 13-13.4 27.3-35.2 36 21.7 9.1 35.1 23.4 35.1 36.4zm70.5 83.5l9.5-8.5c3.8-3.3 9.3-4 13.7-1.6 4.4 2.4 6.9 7.4 6.1 12.4-4 25.2-34.2 42.1-59.8 42.1s-55.9-16.9-59.8-42.1c-.8-5 1.7-10 6.1-12.4 5.8-3.1 11.2-.7 13.7 1.6l9.5 8.5c14.8 13.2 46.2 13.2 61 0zM136 239.5c0-17.7 14.3-32 32-32s32 14.3 32 32-14.3 32-32 32-32-14.3-32-32zm365.1-194c-8 20.8-31.5 31.5-53.1 25.9l-8.4-2.2-2.3 8.4c-5.9 21.4-27 36.5-49 33-25.2-4-40.6-28.6-34-52.6l22.9-82.6c1.5-5.3 7-8.5 12.4-7.1l83 21.5c24.1 6.3 37.7 31.8 28.5 55.7zM334 11.7C307.9-.8 278.8-8 248-8 137.7-8 48 81.7 48 192s89.7 200 200 200 200-89.7 200-200c0-22.1-3.7-43.3-10.4-63.2 9-6.4 17-14.2 22.6-23.9 6.4-.1 12.6-1.4 18.6-2.9 10.9 27.9 17.1 58.2 17.1 90C496 329 385 440 248 440S0 329 0 192 111-56 248-56c35.4 0 68.9 7.5 99.4 20.9-2.5 7.3 4.3-17.2-13.4 46.8z"/><glyph glyph-name="kiss" unicode="" horiz-adv-x="496" d="M168 272c-17.7 0-32-14.3-32-32s14.3-32 32-32 32 14.3 32 32-14.3 32-32 32zm136-132c0 19.2-28.8 41.5-71.5 44-3.8.4-7.4-2.4-8.2-6.2-.9-3.8 1.1-7.7 4.7-9.2l16.9-7.2c13-5.5 20.8-13.5 20.8-21.5s-7.8-16-20.7-21.5l-17-7.2c-5.7-2.4-6-12.2 0-14.8l16.9-7.2c13-5.5 20.8-13.5 20.8-21.5s-7.8-16-20.7-21.5L229 39c-3.6-1.5-5.6-5.4-4.7-9.2.8-3.6 4.1-6.2 7.8-6.2h.5c42.8 2.5 71.5 24.8 71.5 44 0 13-13.4 27.3-35.2 36C290.6 112.7 304 127 304 140zm-56 300C111 440 0 329 0 192S111-56 248-56 496 55 496 192 385 440 248 440zm0-448C137.7-8 48 81.7 48 192s89.7 200 200 200 200-89.7 200-200S358.3-8 248-8zm80 280c-17.7 0-32-14.3-32-32s14.3-32 32-32 32 14.3 32 32-14.3 32-32 32z"/><glyph glyph-name="laugh-beam" unicode="" horiz-adv-x="496" d="M248 440C111 440 0 329 0 192S111-56 248-56 496 55 496 192 385 440 248 440zM389.4 50.6C351.6 12.8 301.4-8 248-8S144.4 12.8 106.6 50.6 48 138.6 48 192s20.8 103.6 58.6 141.4S194.6 392 248 392s103.6-20.8 141.4-58.6S448 245.4 448 192 427.2 88.4 389.4 50.6zM328 296c-23.8 0-52.7-29.3-56-71.4-.7-8.6 10.8-11.9 14.9-4.5l9.5 17c7.7 13.7 19.2 21.6 31.5 21.6s23.8-7.9 31.5-21.6l9.5-17c4.1-7.4 15.6-4 14.9 4.5-3.1 42.1-32 71.4-55.8 71.4zm-201-75.9l9.5 17c7.7 13.7 19.2 21.6 31.5 21.6s23.8-7.9 31.5-21.6l9.5-17c4.1-7.4 15.6-4 14.9 4.5-3.3 42.1-32.2 71.4-56 71.4s-52.7-29.3-56-71.4c-.6-8.5 10.9-11.9 15.1-4.5zM362.4 160H133.6c-8.2 0-14.5-7-13.5-15C127.6 85.8 179 40 241.2 40h13.6c62.2 0 113.6 45.8 121.1 105 1 8-5.3 15-13.5 15z"/><glyph glyph-name="laugh-squint" unicode="" horiz-adv-x="496" d="M248 440C111 440 0 329 0 192S111-56 248-56 496 55 496 192 385 440 248 440zM389.4 50.6C351.6 12.8 301.4-8 248-8S144.4 12.8 106.6 50.6 48 138.6 48 192s20.8 103.6 58.6 141.4S194.6 392 248 392s103.6-20.8 141.4-58.6S448 245.4 448 192 427.2 88.4 389.4 50.6zM343.6 252l33.6 40.3c8.6 10.3-3.8 24.8-15.4 18l-80-48c-7.8-4.7-7.8-15.9 0-20.6l80-48c11.5-6.8 24 7.6 15.4 18L343.6 252zm-209.4-58.3l80 48c7.8 4.7 7.8 15.9 0 20.6l-80 48c-11.6 6.9-24-7.7-15.4-18l33.6-40.3-33.6-40.3c-8.7-10.4 3.8-24.8 15.4-18zM362.4 160H133.6c-8.2 0-14.5-7-13.5-15C127.6 85.8 179 40 241.2 40h13.6c62.2 0 113.6 45.8 121.1 105 1 8-5.3 15-13.5 15z"/><glyph glyph-name="laugh-wink" unicode="" horiz-adv-x="496" d="M248 440C111 440 0 329 0 192S111-56 248-56 496 55 496 192 385 440 248 440zM389.4 50.6C351.6 12.8 301.4-8 248-8S144.4 12.8 106.6 50.6C68.8 88.4 48 138.6 48 192s20.8 103.6 58.6 141.4c37.8 37.8 88 58.6 141.4 58.6s103.6-20.8 141.4-58.6c37.8-37.8 58.6-88 58.6-141.4S427.2 88.4 389.4 50.6zM328 284c-25.7 0-55.9-16.9-59.9-42.1-1.7-11.2 11.5-18.2 19.8-10.8l9.5 8.5c14.8 13.2 46.2 13.2 61 0l9.5-8.5c8.5-7.4 21.6-.3 19.8 10.8-3.8 25.2-34 42.1-59.7 42.1zm-160-60c17.7 0 32 14.3 32 32s-14.3 32-32 32-32-14.3-32-32 14.3-32 32-32zm194.4-64H133.6c-8.2 0-14.5-7-13.5-15C127.6 85.8 179 40 241.2 40h13.6c62.2 0 113.6 45.8 121.1 105 1 8-5.3 15-13.5 15z"/><glyph glyph-name="laugh" unicode="" horiz-adv-x="496" d="M248 440C111 440 0 329 0 192S111-56 248-56 496 55 496 192 385 440 248 440zM389.4 50.6C351.6 12.8 301.4-8 248-8S144.4 12.8 106.6 50.6 48 138.6 48 192s20.8 103.6 58.6 141.4S194.6 392 248 392s103.6-20.8 141.4-58.6S448 245.4 448 192 427.2 88.4 389.4 50.6zM328 224c17.7 0 32 14.3 32 32s-14.3 32-32 32-32-14.3-32-32 14.3-32 32-32zm-160 0c17.7 0 32 14.3 32 32s-14.3 32-32 32-32-14.3-32-32 14.3-32 32-32zm194.4-64H133.6c-8.2 0-14.5-7-13.5-15C127.6 85.8 179 40 241.2 40h13.6c62.2 0 113.6 45.8 121.1 105 1 8-5.3 15-13.5 15z"/><glyph glyph-name="lemon" unicode="" horiz-adv-x="512" d="M484.112 420.111c-28.123 28.122-68.004 35.946-97.053 19.024-39.455-22.983-163.555 49.976-295.863-82.332C-41.277 224.328 31.923 100.528 8.866 60.942-8.056 31.891-.234-7.99 27.888-36.112c28.135-28.135 68.011-35.938 97.057-19.021 39.423 22.97 163.557-49.969 295.858 82.329 132.474 132.477 59.273 256.277 82.331 295.861 16.922 29.05 9.1 68.931-19.022 97.054zm-22.405-72.894c-38.8-66.609 45.6-165.635-74.845-286.08-120.44-120.443-219.475-36.048-286.076-74.843-22.679-13.207-64.035 27.241-50.493 50.488 38.8 66.609-45.6 165.635 74.845 286.08 120.435 120.436 219.478 36.052 286.081 74.846 22.73 13.24 64.005-27.288 50.488-50.491zm-169.861-8.736c1.37-10.96-6.404-20.957-17.365-22.327-54.846-6.855-135.779-87.787-142.635-142.635-1.373-10.989-11.399-18.734-22.326-17.365-10.961 1.37-18.735 11.366-17.365 22.326 9.162 73.286 104.167 168.215 177.365 177.365 10.953 1.368 20.956-6.403 22.326-17.364z"/><glyph glyph-name="life-ring" unicode="" horiz-adv-x="512" d="M256-56c136.967 0 248 111.033 248 248S392.967 440 256 440 8 328.967 8 192 119.033-56 256-56zM152.602 20.72l53.411 53.411c31.806-13.506 68.128-13.522 99.974 0l53.411-53.411c-63.217-38.319-143.579-38.319-206.796 0zM336 192c0-44.112-35.888-80-80-80s-80 35.888-80 80 35.888 80 80 80 80-35.888 80-80zm91.28-103.398l-53.411 53.411c13.505 31.806 13.522 68.128 0 99.974l53.411 53.411c38.319-63.217 38.319-143.579 0-206.796zM359.397 363.28l-53.411-53.411c-31.806 13.505-68.128 13.522-99.973 0l-53.411 53.411c63.217 38.319 143.579 38.319 206.795 0zM84.72 295.398l53.411-53.411c-13.506-31.806-13.522-68.128 0-99.974L84.72 88.602c-38.319 63.217-38.319 143.579 0 206.796z"/><glyph glyph-name="lightbulb" unicode="" horiz-adv-x="352" d="M176 368c-52.94 0-96-43.06-96-96 0-8.84 7.16-16 16-16s16 7.16 16 16c0 35.3 28.72 64 64 64 8.84 0 16 7.16 16 16s-7.16 16-16 16zM96.06-11.17c0-3.15.93-6.22 2.68-8.84l24.51-36.84c2.97-4.46 7.97-7.14 13.32-7.14h78.85c5.36 0 10.36 2.68 13.32 7.14l24.51 36.84c1.74 2.62 2.67 5.7 2.68 8.84l.05 43.18H96.02l.04-43.18zM176 448C73.72 448 0 365.03 0 272c0-44.37 16.45-84.85 43.56-115.78 16.64-18.99 42.74-58.8 52.42-92.16V64h48v.12c-.01 4.77-.72 9.51-2.15 14.07-5.59 17.81-22.82 64.77-62.17 109.67-20.54 23.43-31.52 53.15-31.61 84.14-.2 73.64 59.67 128 127.95 128 70.58 0 128-57.42 128-128 0-30.97-11.24-60.85-31.65-84.14-39.11-44.61-56.42-91.47-62.1-109.46a47.507 47.507 0 0 1-2.22-14.3V64h48v.05c9.68 33.37 35.78 73.18 52.42 92.16C335.55 187.15 352 227.63 352 272c0 97.2-78.8 176-176 176z"/><glyph glyph-name="list-alt" unicode="" horiz-adv-x="512" d="M464 416H48c-26.51 0-48-21.49-48-48V16c0-26.51 21.49-48 48-48h416c26.51 0 48 21.49 48 48v352c0 26.51-21.49 48-48 48zm-6-400H54a6 6 0 0 0-6 6v340a6 6 0 0 0 6 6h404a6 6 0 0 0 6-6V22a6 6 0 0 0-6-6zm-42 92V84c0-6.627-5.373-12-12-12H204c-6.627 0-12 5.373-12 12v24c0 6.627 5.373 12 12 12h200c6.627 0 12-5.373 12-12zm0 96v-24c0-6.627-5.373-12-12-12H204c-6.627 0-12 5.373-12 12v24c0 6.627 5.373 12 12 12h200c6.627 0 12-5.373 12-12zm0 96v-24c0-6.627-5.373-12-12-12H204c-6.627 0-12 5.373-12 12v24c0 6.627 5.373 12 12 12h200c6.627 0 12-5.373 12-12zm-252-12c0-19.882-16.118-36-36-36s-36 16.118-36 36 16.118 36 36 36 36-16.118 36-36zm0-96c0-19.882-16.118-36-36-36s-36 16.118-36 36 16.118 36 36 36 36-16.118 36-36zm0-96c0-19.882-16.118-36-36-36S92 76.118 92 96s16.118 36 36 36 36-16.118 36-36z"/><glyph glyph-name="map" unicode="" horiz-adv-x="576" d="M560.02 416c-1.96 0-3.98-.37-5.96-1.16L384.01 352H384l-172 60.72a64.252 64.252 0 0 1-20.24 3.28c-6.69 0-13.37-1.05-19.81-3.14L20.12 360.05A32.006 32.006 0 0 1 0 330.34V-15.98C0-25.17 7.53-32 15.99-32c1.96 0 3.97.37 5.96 1.16L192 32l172-60.71a63.98 63.98 0 0 1 40.05-.15l151.83 52.81A31.996 31.996 0 0 1 576 53.66v346.32c0 9.19-7.53 16.02-15.98 16.02zM224 357.58l128-45.19V26.42L224 71.61v285.97zM48 29.95v288.98l128 44.53V77.26l-.64-.23L48 29.95zm480 35.13L400 20.55v286.19l.64.24L528 354.05V65.08z"/><glyph glyph-name="meh-blank" unicode="" horiz-adv-x="496" d="M248 440C111 440 0 329 0 192S111-56 248-56 496 55 496 192 385 440 248 440zm0-448C137.7-8 48 81.7 48 192s89.7 200 200 200 200-89.7 200-200S358.3-8 248-8zm-80 280c-17.7 0-32-14.3-32-32s14.3-32 32-32 32 14.3 32 32-14.3 32-32 32zm160 0c-17.7 0-32-14.3-32-32s14.3-32 32-32 32 14.3 32 32-14.3 32-32 32z"/><glyph glyph-name="meh-rolling-eyes" unicode="" horiz-adv-x="496" d="M248 440C111 440 0 329 0 192S111-56 248-56 496 55 496 192 385 440 248 440zm0-448C137.7-8 48 81.7 48 192s89.7 200 200 200 200-89.7 200-200S358.3-8 248-8zm88 304c-39.8 0-72-32.2-72-72s32.2-72 72-72 72 32.2 72 72-32.2 72-72 72zm0-112c-22.1 0-40 17.9-40 40 0 13.6 7.3 25.1 17.7 32.3-1-2.6-1.7-5.3-1.7-8.3 0-13.3 10.7-24 24-24s24 10.7 24 24c0 2.9-.7 5.7-1.7 8.3 10.4-7.2 17.7-18.7 17.7-32.3 0-22.1-17.9-40-40-40zm-104 40c0 39.8-32.2 72-72 72s-72-32.2-72-72 32.2-72 72-72 72 32.2 72 72zm-112 0c0 13.6 7.3 25.1 17.7 32.3-1-2.6-1.7-5.3-1.7-8.3 0-13.3 10.7-24 24-24s24 10.7 24 24c0 2.9-.7 5.7-1.7 8.3 10.4-7.2 17.7-18.7 17.7-32.3 0-22.1-17.9-40-40-40s-40 17.9-40 40zM312 96H184c-13.2 0-24-10.8-24-24s10.8-24 24-24h128c13.2 0 24 10.8 24 24s-10.8 24-24 24z"/><glyph glyph-name="meh" unicode="" horiz-adv-x="496" d="M248 440C111 440 0 329 0 192S111-56 248-56 496 55 496 192 385 440 248 440zm0-448C137.7-8 48 81.7 48 192s89.7 200 200 200 200-89.7 200-200S358.3-8 248-8zm-80 216c17.7 0 32 14.3 32 32s-14.3 32-32 32-32-14.3-32-32 14.3-32 32-32zm160 64c-17.7 0-32-14.3-32-32s14.3-32 32-32 32 14.3 32 32-14.3 32-32 32zm8-144H160c-13.2 0-24-10.8-24-24s10.8-24 24-24h176c13.2 0 24 10.8 24 24s-10.8 24-24 24z"/><glyph glyph-name="minus-square" unicode="" horiz-adv-x="448" d="M108 164c-6.6 0-12 5.4-12 12v32c0 6.6 5.4 12 12 12h232c6.6 0 12-5.4 12-12v-32c0-6.6-5.4-12-12-12H108zm340 204V16c0-26.5-21.5-48-48-48H48C21.5-32 0-10.5 0 16v352c0 26.5 21.5 48 48 48h352c26.5 0 48-21.5 48-48zM400 22v340c0 3.3-2.7 6-6 6H54c-3.3 0-6-2.7-6-6V22c0-3.3 2.7-6 6-6h340c3.3 0 6 2.7 6 6z"/><glyph glyph-name="money-bill-alt" unicode="" horiz-adv-x="640" d="M320 304c-53.02 0-96-50.14-96-112 0-61.85 42.98-112 96-112 53 0 96 50.13 96 112 0 61.86-42.98 112-96 112zm40-168c0-4.42-3.58-8-8-8h-64c-4.42 0-8 3.58-8 8v16c0 4.42 3.58 8 8 8h16v55.44l-.47-.31a7.992 7.992 0 0 0-11.09 2.22l-8.88 13.31a7.992 7.992 0 0 0 2.22 11.09l15.33 10.22a23.99 23.99 0 0 0 13.31 4.03H328c4.42 0 8-3.58 8-8v-88h16c4.42 0 8-3.58 8-8v-16zm248 248H32c-17.67 0-32-14.33-32-32V32C0 14.33 14.33 0 32 0h576c17.67 0 32 14.33 32 32v320c0 17.67-14.33 32-32 32zm-16-272c-35.35 0-64-28.65-64-64H112c0 35.35-28.65 64-64 64v160c35.35 0 64 28.65 64 64h416c0-35.35 28.65-64 64-64V112z"/><glyph glyph-name="moon" unicode="" horiz-adv-x="512" d="M279.135-64c78.756 0 150.982 35.804 198.844 94.775 28.27 34.831-2.558 85.722-46.249 77.401-82.348-15.683-158.272 47.268-158.272 130.792 0 48.424 26.06 92.292 67.434 115.836 38.745 22.05 28.999 80.788-15.022 88.919A257.936 257.936 0 0 1 279.135 448c-141.36 0-256-114.575-256-256 0-141.36 114.576-256 256-256zm0 464c12.985 0 25.689-1.201 38.016-3.478-54.76-31.163-91.693-90.042-91.693-157.554 0-113.848 103.641-199.2 215.252-177.944C402.574 14.036 344.366-16 279.135-16c-114.875 0-208 93.125-208 208s93.125 208 208 208z"/><glyph glyph-name="newspaper" unicode="" horiz-adv-x="576" d="M552 384H112c-20.858 0-38.643-13.377-45.248-32H24c-13.255 0-24-10.745-24-24V56C0 25.072 25.072 0 56 0h496c13.255 0 24 10.745 24 24v336c0 13.255-10.745 24-24 24zM48 56v248h16V56c0-4.411-3.589-8-8-8s-8 3.589-8 8zm480-8H111.422c.374 2.614.578 5.283.578 8v280h416V48zM172 168h136c6.627 0 12 5.373 12 12v96c0 6.627-5.373 12-12 12H172c-6.627 0-12-5.373-12-12v-96c0-6.627 5.373-12 12-12zm28 80h80v-40h-80v40zm-40-140v24c0 6.627 5.373 12 12 12h136c6.627 0 12-5.373 12-12v-24c0-6.627-5.373-12-12-12H172c-6.627 0-12 5.373-12 12zm192 0v24c0 6.627 5.373 12 12 12h104c6.627 0 12-5.373 12-12v-24c0-6.627-5.373-12-12-12H364c-6.627 0-12 5.373-12 12zm0 144v24c0 6.627 5.373 12 12 12h104c6.627 0 12-5.373 12-12v-24c0-6.627-5.373-12-12-12H364c-6.627 0-12 5.373-12 12zm0-72v24c0 6.627 5.373 12 12 12h104c6.627 0 12-5.373 12-12v-24c0-6.627-5.373-12-12-12H364c-6.627 0-12 5.373-12 12z"/><glyph glyph-name="object-group" unicode="" horiz-adv-x="512" d="M500 320c6.627 0 12 5.373 12 12v72c0 6.627-5.373 12-12 12h-72c-6.627 0-12-5.373-12-12v-12H96v12c0 6.627-5.373 12-12 12H12c-6.627 0-12-5.373-12-12v-72c0-6.627 5.373-12 12-12h12V64H12C5.373 64 0 58.627 0 52v-72c0-6.627 5.373-12 12-12h72c6.627 0 12 5.373 12 12v12h320v-12c0-6.627 5.373-12 12-12h72c6.627 0 12 5.373 12 12v72c0 6.627-5.373 12-12 12h-12v256h12zm-52 64h32v-32h-32v32zm-416 0h32v-32H32v32zM64 0H32v32h32V0zm416 0h-32v32h32V0zm-40 64h-12c-6.627 0-12-5.373-12-12V40H96v12c0 6.627-5.373 12-12 12H72v256h12c6.627 0 12 5.373 12 12v12h320v-12c0-6.627 5.373-12 12-12h12V64zm-36 192h-84v52c0 6.628-5.373 12-12 12H108c-6.627 0-12-5.372-12-12V140c0-6.628 5.373-12 12-12h84V76c0-6.628 5.373-12 12-12h200c6.627 0 12 5.372 12 12v168c0 6.628-5.373 12-12 12zm-268 24h144V168H136v112zm240-176H232v24h76c6.627 0 12 5.372 12 12v76h56V104z"/><glyph glyph-name="object-ungroup" unicode="" horiz-adv-x="576" d="M564 224c6.627 0 12 5.373 12 12v72c0 6.627-5.373 12-12 12h-72c-6.627 0-12-5.373-12-12v-12h-88v24h12c6.627 0 12 5.373 12 12v72c0 6.627-5.373 12-12 12h-72c-6.627 0-12-5.373-12-12v-12H96v12c0 6.627-5.373 12-12 12H12c-6.627 0-12-5.373-12-12v-72c0-6.627 5.373-12 12-12h12V160H12c-6.627 0-12-5.373-12-12V76c0-6.627 5.373-12 12-12h72c6.627 0 12 5.373 12 12v12h88V64h-12c-6.627 0-12-5.373-12-12v-72c0-6.627 5.373-12 12-12h72c6.627 0 12 5.373 12 12v12h224v-12c0-6.627 5.373-12 12-12h72c6.627 0 12 5.373 12 12v72c0 6.627-5.373 12-12 12h-12v160h12zM352 384h32v-32h-32v32zm0-256h32V96h-32v32zM64 96H32v32h32V96zm0 256H32v32h32v-32zm32-216v12c0 6.627-5.373 12-12 12H72v160h12c6.627 0 12 5.373 12 12v12h224v-12c0-6.627 5.373-12 12-12h12V160h-12c-6.627 0-12-5.373-12-12v-12H96zM224 0h-32v32h32V0zm280 64h-12c-6.627 0-12-5.373-12-12V40H256v12c0 6.627-5.373 12-12 12h-12v24h88V76c0-6.627 5.373-12 12-12h72c6.627 0 12 5.373 12 12v72c0 6.627-5.373 12-12 12h-12v88h88v-12c0-6.627 5.373-12 12-12h12V64zm40-64h-32v32h32V0zm0 256h-32v32h32v-32z"/><glyph glyph-name="paper-plane" unicode="" horiz-adv-x="512" d="M440 441.5L24 201.6c-34.4-19.9-31.1-70.8 5.7-85.9L144 68.4V-16c0-46.4 59.2-65.5 86.6-28.6l43.8 59.1 111.9-46.2c5.9-2.4 12.1-3.6 18.3-3.6 8.2 0 16.3 2.1 23.6 6.2 12.8 7.2 21.6 20 23.9 34.5l59.4 387.2c6.1 40.1-36.9 68.8-71.5 48.9zM192-16v64.6l36.6-15.1L192-16zm212.6 28.7L250.8 76.2 391 278.5c10.7 15.5-9.5 33.5-23.7 21.2L155.8 115.4 48 160l416 240-59.4-387.3z"/><glyph glyph-name="pause-circle" unicode="" horiz-adv-x="512" d="M256 440C119 440 8 329 8 192S119-56 256-56 504 55 504 192 393 440 256 440zm0-448C145.5-8 56 81.5 56 192s89.5 200 200 200 200-89.5 200-200S366.5-8 256-8zm96 280V112c0-8.8-7.2-16-16-16h-48c-8.8 0-16 7.2-16 16v160c0 8.8 7.2 16 16 16h48c8.8 0 16-7.2 16-16zm-112 0V112c0-8.8-7.2-16-16-16h-48c-8.8 0-16 7.2-16 16v160c0 8.8 7.2 16 16 16h48c8.8 0 16-7.2 16-16z"/><glyph glyph-name="play-circle" unicode="" horiz-adv-x="512" d="M371.7 210l-176 107c-15.8 8.8-35.7-2.5-35.7-21V88c0-18.4 19.8-29.8 35.7-21l176 101c16.4 9.1 16.4 32.8 0 42zM504 192c0 137-111 248-248 248S8 329 8 192 119-56 256-56 504 55 504 192zm-448 0c0 110.5 89.5 200 200 200s200-89.5 200-200S366.5-8 256-8 56 81.5 56 192z"/><glyph glyph-name="plus-square" unicode="" horiz-adv-x="448" d="M352 208v-32c0-6.6-5.4-12-12-12h-88V76c0-6.6-5.4-12-12-12h-32c-6.6 0-12 5.4-12 12v88h-88c-6.6 0-12 5.4-12 12v32c0 6.6 5.4 12 12 12h88v88c0 6.6 5.4 12 12 12h32c6.6 0 12-5.4 12-12v-88h88c6.6 0 12-5.4 12-12zm96 160V16c0-26.5-21.5-48-48-48H48C21.5-32 0-10.5 0 16v352c0 26.5 21.5 48 48 48h352c26.5 0 48-21.5 48-48zM400 22v340c0 3.3-2.7 6-6 6H54c-3.3 0-6-2.7-6-6V22c0-3.3 2.7-6 6-6h340c3.3 0 6 2.7 6 6z"/><glyph glyph-name="question-circle" unicode="" horiz-adv-x="512" d="M256 440C119.043 440 8 328.917 8 192 8 55.003 119.043-56 256-56S504 55.003 504 192c0 136.917-111.043 248-248 248zm0-448C145.468-8 56 81.431 56 192c0 110.495 89.472 200 200 200 110.491 0 200-89.471 200-200C456 81.47 366.569-8 256-8zm107.244 255.2c0-67.052-72.421-68.084-72.421-92.863V148c0-6.627-5.373-12-12-12h-45.647c-6.627 0-12 5.373-12 12v8.659c0 35.745 27.1 50.034 47.579 61.516 17.561 9.845 28.324 16.541 28.324 29.579 0 17.246-21.999 28.693-39.784 28.693-23.189 0-33.894-10.977-48.942-29.969-4.057-5.12-11.46-6.071-16.666-2.124l-27.824 21.098c-5.107 3.872-6.251 11.066-2.644 16.363C184.846 316.509 214.94 336 261.794 336c49.071 0 101.45-38.304 101.45-88.8zM298 80c0-23.159-18.841-42-42-42s-42 18.841-42 42 18.841 42 42 42 42-18.841 42-42z"/><glyph glyph-name="registered" unicode="" horiz-adv-x="512" d="M256 440C119.033 440 8 328.967 8 192S119.033-56 256-56 504 55.033 504 192 392.967 440 256 440zm0-448C145.468-8 56 81.451 56 192c0 110.531 89.451 200 200 200 110.532 0 200-89.451 200-200C456 81.468 366.549-8 256-8zm110.442 81.791c-53.046 96.284-50.25 91.468-53.271 96.085 24.267 13.879 39.482 41.563 39.482 73.176 0 52.503-30.247 85.252-101.498 85.252h-78.667c-6.617 0-12-5.383-12-12V68c0-6.617 5.383-12 12-12h38.568c6.617 0 12 5.383 12 12v83.663h31.958l47.515-89.303A11.98 11.98 0 0 1 313.122 56h42.81c9.14 0 14.914 9.799 10.51 17.791zM256.933 208.094h-33.875v64.14h27.377c32.417 0 38.929-12.133 38.929-31.709-.001-20.913-11.518-32.431-32.431-32.431z"/><glyph glyph-name="sad-cry" unicode="" horiz-adv-x="496" d="M248 440C111 440 0 329 0 192S111-56 248-56 496 55 496 192 385 440 248 440zM392 53.6V168c0 13.2-10.8 24-24 24s-24-10.8-24-24V16.6C315.5 1 282.8-8 248-8s-67.5 9-96 24.6V168c0 13.2-10.8 24-24 24s-24-10.8-24-24V53.6c-34.6 36-56 84.7-56 138.4 0 110.3 89.7 200 200 200s200-89.7 200-200c0-53.7-21.4-102.5-56-138.4zM205.8 213.5c4.4 2.4 6.9 7.4 6.1 12.4-4 25.2-34.2 42.1-59.8 42.1s-55.9-16.9-59.8-42.1c-.8-5 1.7-10 6.1-12.4 4.4-2.4 9.9-1.8 13.7 1.6l9.5 8.5c14.8 13.2 46.2 13.2 61 0l9.5-8.5c2.5-2.3 7.9-4.8 13.7-1.6zM344 268c-25.7 0-55.9-16.9-59.8-42.1-.8-5 1.7-10 6.1-12.4 4.5-2.4 9.9-1.8 13.7 1.6l9.5 8.5c14.8 13.2 46.2 13.2 61 0l9.5-8.5c2.5-2.2 8-4.7 13.7-1.6 4.4 2.4 6.9 7.4 6.1 12.4-3.9 25.2-34.1 42.1-59.8 42.1zm-96-92c-30.9 0-56-28.7-56-64s25.1-64 56-64 56 28.7 56 64-25.1 64-56 64z"/><glyph glyph-name="sad-tear" unicode="" horiz-adv-x="496" d="M248 440C111 440 0 329 0 192S111-56 248-56 496 55 496 192 385 440 248 440zm0-448C137.7-8 48 81.7 48 192s89.7 200 200 200 200-89.7 200-200S358.3-8 248-8zm8 152c-13.2 0-24-10.8-24-24s10.8-24 24-24c23.8 0 46.3-10.5 61.6-28.8 8.1-9.8 23.2-11.9 33.8-3.1 10.2 8.5 11.6 23.6 3.1 33.8C330 127.2 294.1 144 256 144zm-88 64c17.7 0 32 14.3 32 32s-14.3 32-32 32-32-14.3-32-32 14.3-32 32-32zm160 64c-17.7 0-32-14.3-32-32s14.3-32 32-32 32 14.3 32 32-14.3 32-32 32zm-165.6-98.8C151 157.9 126 122.6 126 105.1c0-22.7 18.8-41.1 42-41.1s42 18.4 42 41.1c0 17.5-25 52.8-36.4 68.1-2.8 3.7-8.4 3.7-11.2 0z"/><glyph glyph-name="save" unicode="" horiz-adv-x="448" d="M433.941 318.059l-83.882 83.882A48 48 0 0 1 316.118 416H48c-26.51 0-48-21.49-48-48V16c0-26.51 21.49-48 48-48h352c26.51 0 48 21.49 48 48v268.118a48 48 0 0 1-14.059 33.941zM272 368v-80H144v80h128zM394 16H54a6 6 0 0 0-6 6v340a6 6 0 0 0 6 6h42V264c0-13.255 10.745-24 24-24h176c13.255 0 24 10.745 24 24v100.118l78.243-78.243a6 6 0 0 0 1.757-4.243V22a6 6 0 0 0-6-6zM224 216c-48.523 0-88-39.477-88-88s39.477-88 88-88 88 39.477 88 88-39.477 88-88 88zm0-128c-22.056 0-40 17.944-40 40s17.944 40 40 40 40-17.944 40-40-17.944-40-40-40z"/><glyph glyph-name="share-square" unicode="" horiz-adv-x="576" d="M561.938 289.94L417.94 433.908c-30.014 30.014-81.94 8.995-81.94-33.94V342.77c-42.45-1.88-84.03-6.55-120.76-17.99-35.17-10.95-63.07-27.58-82.91-49.42C108.22 248.8 96 215.4 96 176.06c0-61.697 33.178-112.455 84.87-144.76 37.546-23.508 85.248 12.651 71.02 55.74-15.515 47.119-17.156 70.923 84.11 78.76V112c0-42.993 51.968-63.913 81.94-33.94l143.998 144c18.75 18.74 18.75 49.14 0 67.88zM384 112v103.84C255.309 213.918 166.492 192.65 206.31 72 176.79 90.45 144 123.92 144 176.06c0 109.334 129.14 118.947 240 119.85V400l144-144-144-144zm24.74-84.493a82.658 82.658 0 0 1 20.974 9.303C437.69 41.762 448 35.984 448 26.596V-16c0-26.51-21.49-48-48-48H48C21.49-64 0-42.51 0-16v352c0 26.51 21.49 48 48 48h132c6.627 0 12-5.373 12-12v-4.486c0-4.917-2.987-9.369-7.569-11.152-13.702-5.331-26.396-11.537-38.05-18.585a12.138 12.138 0 0 0-6.28-1.777H54a6 6 0 0 1-6-6V-10a6 6 0 0 1 6-6h340a6 6 0 0 1 6 6v25.966c0 5.37 3.579 10.059 8.74 11.541z"/><glyph glyph-name="smile-beam" unicode="" horiz-adv-x="496" d="M248 440C111 440 0 329 0 192S111-56 248-56 496 55 496 192 385 440 248 440zm0-448C137.7-8 48 81.7 48 192s89.7 200 200 200 200-89.7 200-200S358.3-8 248-8zm84 143.4c-20.8-25-51.5-39.4-84-39.4s-63.2 14.3-84 39.4c-8.5 10.2-23.6 11.5-33.8 3.1-10.2-8.5-11.5-23.6-3.1-33.8 30-36 74.1-56.6 120.9-56.6s90.9 20.6 120.9 56.6c8.5 10.2 7.1 25.3-3.1 33.8-10.2 8.4-25.3 7.1-33.8-3.1zM136.5 237c7.7 13.7 19.2 21.6 31.5 21.6s23.8-7.9 31.5-21.6l9.5-17c2.1-3.7 6.2-4.7 9.3-3.7 3.6 1.1 6 4.5 5.7 8.3-3.3 42.1-32.2 71.4-56 71.4s-52.7-29.3-56-71.4c-.3-3.7 2.1-7.2 5.7-8.3 3.4-1.1 7.4.5 9.3 3.7l9.5 17zM328 296c-23.8 0-52.7-29.3-56-71.4-.3-3.7 2.1-7.2 5.7-8.3 3.5-1.1 7.4.5 9.3 3.7l9.5 17c7.7 13.7 19.2 21.6 31.5 21.6s23.8-7.9 31.5-21.6l9.5-17c2.1-3.7 6.2-4.7 9.3-3.7 3.6 1.1 6 4.5 5.7 8.3-3.3 42.1-32.2 71.4-56 71.4z"/><glyph glyph-name="smile-wink" unicode="" horiz-adv-x="496" d="M248 440C111 440 0 329 0 192S111-56 248-56 496 55 496 192 385 440 248 440zm0-448C137.7-8 48 81.7 48 192s89.7 200 200 200 200-89.7 200-200S358.3-8 248-8zm117.8 146.4c-10.2 8.5-25.3 7.1-33.8-3.1-20.8-25-51.5-39.4-84-39.4s-63.2 14.3-84 39.4c-8.5 10.2-23.7 11.5-33.8 3.1-10.2-8.5-11.5-23.6-3.1-33.8 30-36 74.1-56.6 120.9-56.6s90.9 20.6 120.9 56.6c8.5 10.2 7.1 25.3-3.1 33.8zM168 208c17.7 0 32 14.3 32 32s-14.3 32-32 32-32-14.3-32-32 14.3-32 32-32zm160 60c-25.7 0-55.9-16.9-59.9-42.1-1.7-11.2 11.5-18.2 19.8-10.8l9.5 8.5c14.8 13.2 46.2 13.2 61 0l9.5-8.5c8.5-7.4 21.6-.3 19.8 10.8-3.8 25.2-34 42.1-59.7 42.1z"/><glyph glyph-name="smile" unicode="" horiz-adv-x="496" d="M248 440C111 440 0 329 0 192S111-56 248-56 496 55 496 192 385 440 248 440zm0-448C137.7-8 48 81.7 48 192s89.7 200 200 200 200-89.7 200-200S358.3-8 248-8zm-80 216c17.7 0 32 14.3 32 32s-14.3 32-32 32-32-14.3-32-32 14.3-32 32-32zm160 0c17.7 0 32 14.3 32 32s-14.3 32-32 32-32-14.3-32-32 14.3-32 32-32zm4-72.6c-20.8-25-51.5-39.4-84-39.4s-63.2 14.3-84 39.4c-8.5 10.2-23.7 11.5-33.8 3.1-10.2-8.5-11.5-23.6-3.1-33.8 30-36 74.1-56.6 120.9-56.6s90.9 20.6 120.9 56.6c8.5 10.2 7.1 25.3-3.1 33.8-10.1 8.4-25.3 7.1-33.8-3.1z"/><glyph glyph-name="snowflake" unicode="" horiz-adv-x="448" d="M440.1 92.8l-39.2 23 34.1 9.3c8.4 2.3 13.4 11.1 11.1 19.6l-4.1 15.5c-2.2 8.5-10.9 13.6-19.3 11.3L343 149.8 271.2 192l71.9 42.2 79.7-21.7c8.4-2.3 17 2.8 19.3 11.3l4.1 15.5c2.2 8.5-2.7 17.3-11.1 19.6l-34.1 9.3 39.2 23c7.5 4.4 10.1 14.2 5.8 21.9l-7.9 13.9c-4.3 7.7-14 10.3-21.5 5.9l-39.2-23 9.1 34.7c2.2 8.5-2.7 17.3-11.1 19.6l-15.2 4.1c-8.4 2.3-17-2.8-19.3-11.3l-21.3-81-71.9-42.2v84.5l58.3 59.3c6.1 6.2 6.1 16.4 0 22.6l-11.1 11.3c-6.1 6.2-16.1 6.2-22.2 0l-24.9-25.4V432c0 8.8-7 16-15.7 16h-15.7c-8.7 0-15.7-7.2-15.7-16v-46.1l-24.9 25.4c-6.1 6.2-16.1 6.2-22.2 0L142.1 400c-6.1-6.2-6.1-16.4 0-22.6l58.3-59.3v-84.5l-71.9 42.2-21.3 81c-2.2 8.5-10.9 13.6-19.3 11.3L72.7 364c-8.4-2.3-13.4-11.1-11.1-19.6l9.1-34.7-39.2 23c-7.5 4.4-17.1 1.8-21.5-5.9l-7.9-13.9c-4.3-7.7-1.8-17.4 5.8-21.9l39.2-23-34.1-9.1c-8.4-2.3-13.4-11.1-11.1-19.6L6 223.8c2.2-8.5 10.9-13.6 19.3-11.3l79.7 21.7 71.9-42.2-71.9-42.2-79.7 21.7c-8.4 2.3-17-2.8-19.3-11.3l-4.1-15.5c-2.2-8.5 2.7-17.3 11.1-19.6l34.1-9.3-39.2-23C.4 88.4-2.2 78.6 2.1 70.9L10 57c4.3-7.7 14-10.3 21.5-5.9l39.2 23-9.1-34.7c-2.2-8.5 2.7-17.3 11.1-19.6l15.2-4.1c8.4-2.3 17 2.8 19.3 11.3l21.3 81 71.9 42.2V65.7L142.1 6.4c-6.1-6.2-6.1-16.4 0-22.6l11.1-11.3c6.1-6.2 16.1-6.2 22.2 0l24.9 25.4V-48c0-8.8 7-16 15.7-16h15.7c8.7 0 15.7 7.2 15.7 16v46.1l24.9-25.4c6.1-6.2 16.1-6.2 22.2 0L305.6-16c6.1 6.2 6.1 16.4 0 22.6l-58.3 59.3v84.5l71.9-42.2 21.3-81c2.2-8.5 10.9-13.6 19.3-11.3L375 20c8.4 2.3 13.4 11.1 11.1 19.6L377 74.3l39.2-23c7.5-4.4 17.1-1.8 21.5 5.9l7.9 13.9c4.6 7.5 2.1 17.3-5.5 21.7z"/><glyph glyph-name="square" unicode="" horiz-adv-x="448" d="M400 416H48c-26.5 0-48-21.5-48-48V16c0-26.5 21.5-48 48-48h352c26.5 0 48 21.5 48 48v352c0 26.5-21.5 48-48 48zm-6-400H54c-3.3 0-6 2.7-6 6v340c0 3.3 2.7 6 6 6h340c3.3 0 6-2.7 6-6V22c0-3.3-2.7-6-6-6z"/><glyph glyph-name="star-half" unicode="" horiz-adv-x="576" d="M288 62.7L163.7-2.7l23.7 138.4-100.6 98 139 20.2 62.2 126V448c-11.4 0-22.8-5.9-28.7-17.8L194 297.8 47.9 276.6c-26.2-3.8-36.7-36.1-17.7-54.6l105.7-103-25-145.5c-4.5-26.1 23-46 46.4-33.7L288 8.4v54.3z"/><glyph glyph-name="star" unicode="" horiz-adv-x="576" d="M528.1 276.5L382 297.8l-65.3 132.4c-11.7 23.6-45.6 23.9-57.4 0L194 297.8 47.9 276.5c-26.2-3.8-36.7-36.1-17.7-54.6l105.7-103-25-145.5c-4.5-26.3 23.2-46 46.4-33.7L288 8.4l130.7-68.7c23.2-12.2 50.9 7.4 46.4 33.7l-25 145.5 105.7 103c19 18.5 8.5 50.8-17.7 54.6zM388.6 135.7L412.3-2.7 288 62.6 163.7-2.7l23.7 138.4-100.6 98 139 20.2 62.2 126 62.2-126 139-20.2-100.6-98z"/><glyph glyph-name="sticky-note" unicode="" horiz-adv-x="448" d="M448 99.894V368c0 26.51-21.49 48-48 48H48c-26.51 0-48-21.49-48-48V16.012c0-26.51 21.49-48 48-48h268.118a48 48 0 0 1 33.941 14.059l83.882 83.882A48 48 0 0 1 448 99.894zm-128-80v76.118h76.118L320 19.894zM400 368V144.012H296c-13.255 0-24-10.745-24-24v-104H48V368h352z"/><glyph glyph-name="stop-circle" unicode="" horiz-adv-x="512" d="M504 192c0 137-111 248-248 248S8 329 8 192 119-56 256-56 504 55 504 192zm-448 0c0 110.5 89.5 200 200 200s200-89.5 200-200S366.5-8 256-8 56 81.5 56 192zm296 80V112c0-8.8-7.2-16-16-16H176c-8.8 0-16 7.2-16 16v160c0 8.8 7.2 16 16 16h160c8.8 0 16-7.2 16-16z"/><glyph glyph-name="sun" unicode="" horiz-adv-x="512" d="M494.2 226.1l-59.8 40.5 13.7 71c2.6 13.2-1.6 26.8-11.1 36.4-9.6 9.5-23.2 13.7-36.2 11.1l-70.9-13.7-40.4 59.9c-15.1 22.3-51.9 22.3-67 0l-40.4-59.9-70.8 13.7c-13.3 2.5-26.8-1.6-36.3-11.2-9.5-9.6-13.7-23.1-11.1-36.3l13.7-71-59.8-40.5C6.6 218.5 0 206 0 192.5s6.7-26 17.8-33.5l59.8-40.5-13.7-71C61.3 34.3 65.5 20.7 75 11.2 84.5 1.7 97.9-2.5 111.3.1l70.8 13.7 40.4-59.9C230-57.3 242.6-64 256-64s26 6.7 33.5 17.8l40.4 59.9L400.8 0c13.4-2.7 26.8 1.6 36.3 11.1 9.5 9.5 13.6 23.1 11.1 36.3l-13.7 71 59.8 40.5c11.1 7.5 17.8 20.1 17.8 33.5-.1 13.6-6.7 26.1-17.9 33.7zm-112.9-85.6l17.6-91.2-91 17.6L256-10l-51.9 77-90.9-17.6 17.6 91.2-76.8 52 76.8 52-17.6 91.2 91-17.6L256 395l51.9-76.9 91 17.6-17.6-91.1 76.8-52-76.8-52.1zM256 296c-57.3 0-104-46.7-104-104S198.7 88 256 88s104 46.7 104 104-46.7 104-104 104zm0-160c-30.9 0-56 25.1-56 56s25.1 56 56 56 56-25.1 56-56-25.1-56-56-56z"/><glyph glyph-name="surprise" unicode="" horiz-adv-x="496" d="M248 440C111 440 0 329 0 192S111-56 248-56 496 55 496 192 385 440 248 440zm0-448C137.7-8 48 81.7 48 192s89.7 200 200 200 200-89.7 200-200S358.3-8 248-8zm0 176c-35.3 0-64-28.7-64-64s28.7-64 64-64 64 28.7 64 64-28.7 64-64 64zm-48 72c0 17.7-14.3 32-32 32s-32-14.3-32-32 14.3-32 32-32 32 14.3 32 32zm128 32c-17.7 0-32-14.3-32-32s14.3-32 32-32 32 14.3 32 32-14.3 32-32 32z"/><glyph glyph-name="thumbs-down" unicode="" horiz-adv-x="512" d="M466.27 222.69c4.674 22.647.864 44.538-8.99 62.99 2.958 23.868-4.021 48.565-17.34 66.99C438.986 408.577 404.117 448 327 448c-7 0-15-.01-22.22-.01C201.195 447.99 168.997 408 128 408h-10.845c-5.64 4.975-13.042 8-21.155 8H32c-17.673 0-32-14.327-32-32V144c0-17.673 14.327-32 32-32h64c11.842 0 22.175 6.438 27.708 16h7.052c19.146-16.953 46.013-60.653 68.76-83.4C213.187 30.933 209.673-64 271.28-64c57.58 0 95.27 31.936 95.27 104.73 0 18.41-3.93 33.73-8.85 46.54h36.48c48.602 0 85.82 41.565 85.82 85.58 0 19.15-4.96 34.99-13.73 49.84zM64 152c-13.255 0-24 10.745-24 24s10.745 24 24 24 24-10.745 24-24-10.745-24-24-24zm330.18-16.73H290.19c0-37.82 28.36-55.37 28.36-94.54 0-23.75 0-56.73-47.27-56.73-18.91 18.91-9.46 66.18-37.82 94.54C206.9 105.11 167.28 176 138.92 176H128v186.17c53.611 0 100.001 37.82 171.64 37.82h37.82c35.512 0 60.82-17.12 53.12-65.9 15.2-8.16 26.5-36.44 13.94-57.57 21.581-20.384 18.699-51.065 5.21-65.62 9.45 0 22.36-18.91 22.27-37.81-.09-18.91-16.71-37.82-37.82-37.82z"/></font>
</defs>
</svg>
